<?xml version="1.0" standalone="no"?>
<!DOCTYPE svg PUBLIC "-//W3C//DTD SVG 1.1//EN" "http://www.w3.org/Graphics/SVG/1.1/DTD/svg11.dtd" >
<svg xmlns="http://www.w3.org/2000/svg">
<metadata></metadata>
<defs>
<font id="overpassitalic" horiz-adv-x="1239" >
<font-face units-per-em="2048" ascent="1536" descent="-512" />
<missing-glyph horiz-adv-x="452" />
<glyph unicode="&#xfb01;" horiz-adv-x="1093" d="M188 864l33 183h154l31 174q12 70 40.5 116.5t65.5 73.5t81 38t87 11q55 0 101 -15t87 -38l-30 -170q-41 20 -73 28.5t-65 8.5q-47 0 -68.5 -27.5t-29.5 -68.5l-24 -131h221l-31 -183h-221l-154 -864h-203l154 864h-156zM747 0l185 1047h202l-184 -1047h-203zM960 1319 q0 61 43 103t95 42q49 0 77.5 -29.5t28.5 -72.5q0 -61 -43 -103t-96 -42q-47 0 -76 29.5t-29 72.5z" />
<glyph unicode="&#xfb02;" horiz-adv-x="1107" d="M188 864l33 183h154l31 174q12 70 40.5 116.5t65.5 73.5t81 38t87 11q55 0 101 -15t87 -38l-30 -170q-41 20 -73 28.5t-65 8.5q-47 0 -68.5 -27.5t-29.5 -68.5l-24 -131h221l-31 -183h-221l-154 -864h-203l154 864h-156zM748 0l247 1403l217 76l-262 -1479h-202z" />
<glyph horiz-adv-x="0" />
<glyph horiz-adv-x="682" />
<glyph unicode=" "  horiz-adv-x="452" />
<glyph unicode="&#x09;" horiz-adv-x="452" />
<glyph unicode="&#xa0;" horiz-adv-x="452" />
<glyph unicode="!" horiz-adv-x="530" d="M141 98q0 35 13.5 67t37 55.5t53 36.5t62.5 13q59 0 93 -36.5t34 -88.5q0 -72 -49 -122t-121 -50q-55 0 -89 37t-34 88zM293 395l51 609l82 454h197l-80 -454l-166 -609h-84z" />
<glyph unicode="&#x22;" horiz-adv-x="788" d="M279 862l61 572h240l-144 -572h-157zM651 862l62 572h239l-141 -572h-86h-74z" />
<glyph unicode="#" horiz-adv-x="1331" d="M150 389l61 178h221l109 328h-219l55 176h219l127 363h168l-117 -363h256l119 363h178l-117 -363h228l-58 -176h-223l-108 -328h219l-58 -178h-219l-125 -389h-180l127 389h-258l-127 -389h-178l127 389h-227zM610 567h258l109 328h-258z" />
<glyph unicode="$" horiz-adv-x="1142" d="M158 315l190 70q25 -96 89.5 -154.5t174.5 -58.5q129 0 205 63.5t76 178.5q0 76 -42 124t-104.5 84.5t-136 70.5t-136 81t-104.5 113.5t-42 171.5q0 66 25.5 131t76.5 119.5t125 93.5t170 51l29 158h196l-28 -168q121 -29 183 -103.5t75 -160.5l-195 -64 q-16 59 -66.5 102.5t-146.5 43.5q-106 0 -167.5 -50.5t-61.5 -128.5q0 -61 42 -102t104.5 -75t136 -68.5t136 -85t104.5 -123t42 -183.5q0 -92 -29.5 -171.5t-85 -140t-136.5 -100.5t-183 -54l-31 -175h-207l31 183q-139 31 -215 124t-94 203z" />
<glyph unicode="%" horiz-adv-x="1673" d="M260 -25l1200 1483h207l-1202 -1483h-205zM270 1020q0 72 23.5 148.5t72 141t120 106.5t169.5 42q74 0 125 -27.5t83 -70.5t47.5 -97.5t15.5 -107.5q0 -80 -24.5 -157.5t-74 -140t-121 -100.5t-163.5 -38q-74 0 -125 27.5t-84 70.5t-48.5 96.5t-15.5 106.5zM446 1034 q0 -59 27 -104t90 -45q45 0 80 21.5t59.5 58t37 83t12.5 95.5q0 66 -30 107.5t-89 41.5q-45 0 -80 -22.5t-58.5 -58t-36 -82t-12.5 -95.5zM1004 276q0 72 23.5 149t70.5 141.5t119.5 106.5t171.5 42q74 0 125 -28t82.5 -71t47 -96t15.5 -106q0 -80 -24.5 -159t-73 -140.5 t-120 -100.5t-165.5 -39q-74 0 -125 28t-84 71t-48 96t-15 106zM1178 291q0 -59 27.5 -104.5t90.5 -45.5q45 0 80 21.5t59.5 57.5t37 82t12.5 95q0 66 -30 109t-89 43q-47 0 -82 -22.5t-58.5 -58.5t-35.5 -82t-12 -95z" />
<glyph unicode="&#x26;" horiz-adv-x="1318" d="M147 307q0 94 30 168t82 134.5t124 108.5t158 91q-49 82 -73 149.5t-24 135.5q0 86 33 153.5t86 114.5t123 71.5t143 24.5q137 0 215 -76.5t78 -199.5q0 -68 -23.5 -126.5t-65.5 -107.5t-99 -93t-127 -83l174 -278q29 53 48.5 103t29.5 87h190q-20 -86 -58 -179 t-101 -181l200 -324h-250l-100 160q-100 -92 -215 -138.5t-238 -46.5q-80 0 -143 25t-106 69t-67 104t-24 134zM352 354q0 -86 52.5 -136t144.5 -50q74 0 154.5 37t146.5 102l-225 363q-135 -76 -204 -147.5t-69 -168.5zM635 1122q0 -45 24.5 -98t65.5 -119 q98 55 152.5 116.5t54.5 139.5q0 61 -37 96t-90 35q-72 0 -121 -47t-49 -123z" />
<glyph unicode="'" horiz-adv-x="415" d="M279 862l61 572h240l-144 -572h-157z" />
<glyph unicode="(" horiz-adv-x="669" d="M209 317q0 211 40 386.5t103.5 316.5t141 249.5t155.5 188.5h201q-43 -45 -118 -142t-146.5 -240.5t-124.5 -330t-53 -411.5q0 -104 12 -201.5t30.5 -176.5t38 -137.5t33.5 -84.5h-190q-25 43 -46.5 105.5t-39 138t-27.5 161.5t-10 178z" />
<glyph unicode=")" horiz-adv-x="669" d="M41 -266q41 45 112.5 140t141.5 234.5t121 323.5t51 408q0 106 -13.5 205.5t-32 182.5t-40 142.5t-35.5 87.5h191q27 -45 50 -109.5t40.5 -142.5t28 -167t10.5 -181q0 -209 -38 -381t-99.5 -310t-137.5 -245.5t-151 -187.5h-199z" />
<glyph unicode="*" horiz-adv-x="1036" d="M274 1063l80 176l203 -74l92 -71l-10 127l43 241h190l-43 -237l-59 -131l117 77l217 68l35 -180l-228 -74l-129 -6l84 -78l111 -201l-166 -110l-109 201l-24 129l-64 -129l-168 -199l-137 121l166 186l119 80l-113 6z" />
<glyph unicode="+" d="M268 602v199h365v383h207v-383h366v-199h-366v-381h-207v381h-365z" />
<glyph unicode="," horiz-adv-x="434" d="M49 -242q14 12 37 34t44.5 50.5t40.5 62.5t30 68q-47 6 -77 39t-30 80q0 80 50.5 128t113.5 48q57 0 95 -36.5t38 -108.5q0 -63 -22.5 -122.5t-61.5 -114t-89 -98.5t-105 -77z" />
<glyph unicode="-" horiz-adv-x="772" d="M238 508l34 199h478l-35 -199h-477z" />
<glyph unicode="." horiz-adv-x="428" d="M92 98q0 35 13.5 67t36 55.5t52 36.5t62.5 13q59 0 93 -36.5t34 -88.5q0 -72 -49 -122t-119 -50q-57 0 -90 37t-33 88z" />
<glyph unicode="/" horiz-adv-x="960" d="M-76 -266l1077 1724h201l-1077 -1724h-201z" />
<glyph unicode="0" horiz-adv-x="1232" d="M231 512q0 156 34 322.5t107.5 306t191.5 229.5t288 90q117 0 193.5 -49t122.5 -126t65.5 -172t19.5 -187q0 -98 -13 -208t-44 -215.5t-79 -201.5t-116.5 -169t-159.5 -116t-208 -43q-109 0 -185.5 45t-125 121t-70 172.5t-21.5 200.5zM436 526q0 -66 10.5 -130 t36 -114.5t67.5 -81t103 -30.5q78 0 138.5 40t103.5 105.5t72.5 146.5t48 163t26 155.5t7.5 124.5q0 66 -10.5 130.5t-36 114.5t-67.5 82t-106 32q-80 0 -139 -42t-103 -107.5t-73 -148.5t-46 -165t-24.5 -155t-7.5 -120z" />
<glyph unicode="1" horiz-adv-x="708" d="M256 1116l27 152q100 0 179 34.5t124 131.5h153l-252 -1434h-206l196 1116h-221z" />
<glyph unicode="2" horiz-adv-x="1167" d="M119 0q23 152 77 261.5t128.5 191.5t165 144t182.5 118q63 39 125.5 75.5t113 79.5t81 94.5t30.5 116.5q0 80 -54.5 133.5t-158.5 53.5q-109 0 -183.5 -52.5t-117.5 -150.5l-166 86q66 135 190.5 221t296.5 86q92 0 166 -28.5t127.5 -77.5t82 -116t28.5 -142 q0 -106 -39 -185.5t-104.5 -141.5t-152.5 -116.5t-185 -111.5q-61 -35 -116.5 -73t-102 -80t-80 -88t-50.5 -97h678l-34 -201h-928z" />
<glyph unicode="3" horiz-adv-x="1146" d="M141 311l193 72q33 -111 104.5 -163t175.5 -52q57 0 108.5 18.5t91.5 53t63.5 86t23.5 118.5q0 90 -55 147.5t-170 57.5h-117l33 193h106q57 0 105.5 18.5t84.5 50t56.5 76.5t20.5 98q0 78 -52.5 129.5t-142.5 51.5q-94 0 -160.5 -46t-107.5 -133l-176 70 q29 63 72.5 117.5t102 95.5t131.5 64.5t156 23.5q86 0 158 -24.5t122 -69.5t79 -106.5t29 -137.5q0 -129 -67 -224t-185 -148q92 -37 140 -124t48 -186q0 -106 -39 -191t-106.5 -145.5t-158 -93.5t-194.5 -33q-106 0 -187 29t-139.5 76t-94 107.5t-52.5 123.5z" />
<glyph unicode="4" horiz-adv-x="1193" d="M98 336l25 143l868 955h199l-160 -906h187l-35 -192h-185l-59 -336h-209l59 336h-690zM406 528h417l101 576z" />
<glyph unicode="5" horiz-adv-x="1187" d="M145 242l172 98q20 -31 47 -60.5t64 -54t85 -40t114 -15.5q70 0 131 21.5t107 63.5t73 101.5t27 135.5q0 53 -15.5 100t-45.5 81t-75 53t-106 19q-92 0 -157.5 -35.5t-112.5 -88.5l-170 79l200 734h746l-33 -199h-567l-113 -375q43 31 107.5 54.5t152.5 23.5 q90 0 164 -29.5t126 -85t81 -134.5t29 -177q0 -123 -41 -221t-116 -169t-180.5 -109t-234.5 -38q-86 0 -160.5 22.5t-134 59.5t-101.5 85t-63 100z" />
<glyph unicode="6" horiz-adv-x="1155" d="M172 428q0 166 65.5 336t188.5 314.5t299 248t395 133.5l-33 -194q-197 -45 -359.5 -166t-248.5 -303q47 43 120 72.5t163 29.5q86 0 155.5 -28.5t118.5 -80t77 -122t28 -154.5q0 -123 -42 -223.5t-114 -170t-169 -107.5t-208 -38q-109 0 -190.5 35t-136 96.5t-82 143.5 t-27.5 178zM389 395q0 -100 59 -163.5t170 -63.5q68 0 125.5 22.5t100.5 62.5t67.5 96.5t24.5 125.5q0 102 -62.5 166t-168.5 64q-66 0 -123.5 -23t-100.5 -62.5t-67.5 -97t-24.5 -127.5z" />
<glyph unicode="7" horiz-adv-x="997" d="M268 1239l33 195h885l-29 -170q-152 -150 -261.5 -319t-185 -336t-119.5 -324.5t-65 -284.5h-217q61 340 200.5 646t395.5 593h-637z" />
<glyph unicode="8" horiz-adv-x="1181" d="M182 377q0 166 93.5 278.5t250.5 149.5q-27 12 -55.5 33.5t-53 53.5t-40 74t-15.5 95q0 80 32 152.5t92.5 127t145.5 86t189 31.5q92 0 165 -26.5t123 -72.5t76.5 -109.5t26.5 -135.5q0 -66 -20.5 -120t-56 -97t-82.5 -72.5t-101 -46.5q88 -33 147.5 -116.5t59.5 -198.5 q0 -100 -37 -188.5t-105.5 -155t-167.5 -105.5t-224 -39q-102 0 -184.5 32t-139.5 86t-88 127t-31 157zM395 395q0 -104 65.5 -167.5t180.5 -63.5q63 0 119.5 20.5t96.5 58.5t63.5 92t23.5 124q0 45 -15.5 87t-46 73.5t-76.5 50t-108 18.5q-68 0 -123 -22.5t-95 -61.5 t-62.5 -92t-22.5 -117zM571 1051q0 -70 49.5 -125.5t145.5 -55.5q49 0 92 15.5t76 44t51.5 69.5t18.5 93q0 74 -50.5 127t-146.5 53q-47 0 -90 -15.5t-76 -45t-51.5 -70.5t-18.5 -90z" />
<glyph unicode="9" horiz-adv-x="1155" d="M250 930q0 119 44 216t118.5 166.5t174 107.5t212.5 38q104 0 183 -33.5t133 -94t82 -145.5t28 -188q0 -164 -57.5 -333.5t-171 -315t-285.5 -247t-400 -126.5l33 197q92 16 181 55t168 99.5t141.5 142.5t101.5 182q-47 -49 -125 -79.5t-174 -30.5q-82 0 -152.5 26.5 t-123 77.5t-82 123t-29.5 162zM461 952q0 -102 61.5 -162.5t161.5 -60.5q74 0 133.5 24.5t102.5 66.5t66.5 98.5t23.5 119.5q0 96 -56.5 161t-171.5 65q-68 0 -126 -25t-101 -67t-68.5 -98t-25.5 -122z" />
<glyph unicode=":" horiz-adv-x="428" d="M92 98q0 35 13.5 67t36 55.5t52 36.5t62.5 13q59 0 93 -36.5t34 -88.5q0 -72 -49 -122t-119 -50q-57 0 -90 37t-33 88zM217 819q0 35 13.5 67t37 55.5t53 36.5t62.5 13q59 0 93 -36.5t34 -88.5q0 -72 -49 -122t-121 -50q-55 0 -89 37t-34 88z" />
<glyph unicode=";" horiz-adv-x="428" d="M45 -242q14 12 35.5 35t42 51.5t39 61.5t28.5 67q-43 8 -71.5 40t-28.5 79q0 80 50 128t114 48q57 0 95 -36.5t38 -108.5q0 -63 -22.5 -122.5t-61.5 -114t-89 -98.5t-105 -77zM217 819q0 35 13.5 67t37 55.5t53 36.5t62.5 13q59 0 93 -36.5t34 -88.5q0 -72 -49 -122 t-121 -50q-55 0 -89 37t-34 88z" />
<glyph unicode="&#x3c;" d="M281 612v176l938 392v-207l-672 -271l672 -272v-207z" />
<glyph unicode="=" d="M268 408v196h938v-92v-104h-938zM268 797v198h938v-198h-938z" />
<glyph unicode="&#x3e;" d="M264 223v207l672 272l-672 271v207l938 -392v-176z" />
<glyph unicode="?" horiz-adv-x="983" d="M211 979q20 111 69.5 200t121 151.5t160.5 95t190 32.5q86 0 153.5 -26.5t112.5 -72.5t68.5 -107.5t23.5 -131.5q0 -98 -29.5 -163.5t-76 -115.5t-102.5 -90t-107.5 -83t-91 -98.5t-54.5 -135.5l-8 -47h-199l9 47q20 100 61 171t92 121t104.5 89t97.5 79t71.5 86 t27.5 114t-45 119t-143 51q-121 0 -203 -75t-104 -210h-199zM348 98q0 35 13.5 67t37 55.5t53 36.5t62.5 13q59 0 93 -36.5t34 -88.5q0 -72 -49 -122t-119 -50q-57 0 -91 37t-34 88z" />
<glyph unicode="@" horiz-adv-x="1579" d="M197 569q0 182 68.5 344t187 284t278.5 192.5t342 70.5q135 0 240.5 -40t179.5 -109.5t113 -163.5t39 -205q0 -131 -39 -243.5t-103.5 -195.5t-148.5 -130t-176 -47q-68 0 -110 32.5t-46 98.5q-49 -68 -115.5 -105t-132.5 -37q-106 0 -168.5 78t-62.5 207q0 98 34.5 186 t94 156t139.5 108t170 40q74 0 120 -39t54 -105l39 117h164l-146 -420q-16 -41 -25 -70.5t-9 -48.5q0 -23 12 -37t37 -14q47 0 94 37t84 98.5t59.5 143.5t22.5 172q0 82 -28.5 150.5t-84 117.5t-135.5 75.5t-180 26.5q-154 0 -280 -55t-217 -151.5t-141 -224.5t-50 -275 q0 -96 28.5 -178t86 -141.5t142.5 -94.5t199 -35q68 0 142.5 9.5t140.5 25.5l-74 -174q-47 -10 -105 -17.5t-124 -7.5q-141 0 -254 41t-191.5 118t-121.5 187.5t-43 247.5zM717 621q0 -63 29.5 -102.5t82.5 -39.5q51 0 97.5 26.5t80 71t53 99.5t19.5 110q0 66 -28.5 104 t-83.5 38q-53 0 -98.5 -27t-79 -70t-53 -98t-19.5 -112z" />
<glyph unicode="A" horiz-adv-x="1349" d="M76 0l753 1434h193l254 -1434h-213l-55 334h-535l-174 -334h-223zM569 522h408l-82 488q-4 23 -10 62.5t-8 57.5q-8 -18 -25.5 -56t-30.5 -62z" />
<glyph unicode="B" horiz-adv-x="1300" d="M168 0l252 1434h528q106 0 179 -28t118 -74t64.5 -104.5t19.5 -117.5q0 -74 -21.5 -133t-58.5 -105.5t-83 -78t-95 -50.5q98 -31 152.5 -113.5t54.5 -189.5q0 -84 -27.5 -162.5t-91 -140t-164 -99.5t-245.5 -38h-582zM412 193h344q86 0 144 22.5t94 58t51.5 79.5t15.5 89 q0 43 -12.5 80t-40 64.5t-74.5 44t-117 16.5h-323zM526 838h287q156 0 232.5 67.5t76.5 163.5q0 31 -8 61.5t-30.5 54t-60.5 39t-97 15.5h-330z" />
<glyph unicode="C" horiz-adv-x="1255" d="M227 573q0 170 48.5 329t139.5 282t223 197.5t298 74.5q92 0 162.5 -24.5t123 -63.5t86 -89t52.5 -99l-182 -86q-39 74 -101.5 120t-154.5 46q-117 0 -207 -62.5t-150.5 -159t-91.5 -216.5t-31 -232q0 -76 16.5 -150.5t51.5 -133t90 -94.5t133 -36q113 0 188.5 54.5 t125.5 127.5l180 -82q-86 -137 -209 -219t-299 -82q-127 0 -220 49.5t-153.5 132.5t-89.5 191.5t-29 224.5z" />
<glyph unicode="D" horiz-adv-x="1353" d="M168 0l252 1434h403q147 0 253 -53.5t172.5 -141.5t97 -200.5t30.5 -231.5q0 -133 -39 -276.5t-129 -261t-237.5 -193.5t-362.5 -76h-440zM410 195h213q145 0 246.5 57t165 145t92 195.5t28.5 208.5q0 86 -19.5 166t-61.5 139t-107.5 95t-157.5 36h-215z" />
<glyph unicode="E" horiz-adv-x="1177" d="M168 0l252 1434h864l-33 -197h-653l-70 -399h410l-37 -195h-407l-78 -448h694l-35 -195h-907z" />
<glyph unicode="F" horiz-adv-x="1101" d="M168 0l252 1434h866l-33 -197h-655l-70 -395h426l-36 -203h-424l-113 -639h-213z" />
<glyph unicode="G" horiz-adv-x="1335" d="M227 575q0 168 45 327t134.5 283t222.5 198.5t307 74.5q94 0 167 -25.5t125 -65.5t87 -88t55 -93l-186 -101q-18 35 -42 67t-57.5 55.5t-75.5 38t-98 14.5q-117 0 -205 -60.5t-148 -157t-91 -216t-31 -240.5q0 -84 17.5 -159t54.5 -131t94 -90t137 -34q133 0 220.5 80 t115.5 213l10 55h-249l34 187h473l-20 -111q-29 -170 -85 -289t-134 -192.5t-174.5 -106.5t-200.5 -33q-133 0 -228 50.5t-155.5 133.5t-89.5 191.5t-29 224.5z" />
<glyph unicode="H" horiz-adv-x="1378" d="M168 0l252 1434h213l-105 -594h619l104 594h213l-252 -1434h-213l113 641h-618l-113 -641h-213z" />
<glyph unicode="I" horiz-adv-x="548" d="M168 0l252 1434h213l-252 -1434h-213z" />
<glyph unicode="J" horiz-adv-x="1069" d="M94 256l182 80q29 -72 78 -117t142 -45q106 0 174.5 67.5t97.5 225.5l170 967h213l-176 -1002q-27 -150 -81 -240t-121.5 -138t-139.5 -63.5t-133 -15.5q-160 0 -264.5 78t-141.5 203z" />
<glyph unicode="K" horiz-adv-x="1320" d="M168 0l252 1434h213l-119 -678l641 678h252l-494 -521l324 -913h-223l-258 748l-299 -316l-76 -432h-213z" />
<glyph unicode="L" horiz-adv-x="1087" d="M168 0l252 1434h213l-217 -1235h667l-34 -199h-881z" />
<glyph unicode="M" horiz-adv-x="1570" d="M168 0l252 1434h209l198 -873q10 -35 14.5 -63.5t8.5 -53.5q10 25 24.5 49.5t30.5 51.5l545 889h207l-252 -1434h-211l152 860q4 23 10 53.5t10 44.5q-10 -25 -25.5 -50t-25.5 -44l-541 -889l-213 885q-4 18 -9 42t-9 50q-2 -20 -6.5 -47.5t-8.5 -46.5l-149 -858h-211z " />
<glyph unicode="N" horiz-adv-x="1384" d="M168 0l252 1434h196l424 -965q6 -14 19.5 -48t17.5 -48q2 14 6 46t9 48l170 967h208l-251 -1434h-197l-412 928q-4 8 -12 27.5t-15.5 39t-14.5 37t-9 23.5q0 -6 -2 -22.5t-5 -37t-6 -40t-5 -29.5l-164 -926h-209z" />
<glyph unicode="O" horiz-adv-x="1411" d="M227 575q0 160 44 319t133.5 284t220.5 202.5t307 77.5q133 0 228 -51t156.5 -135t90.5 -190.5t29 -219.5q0 -164 -45 -322.5t-133.5 -284.5t-218.5 -203t-300 -77q-139 0 -236 50.5t-158.5 134.5t-89.5 191.5t-28 223.5zM436 575q0 -78 16.5 -149.5t53.5 -128.5t94 -91 t139 -34q119 0 210 60.5t152.5 157.5t93.5 221t32 251q0 74 -16.5 144.5t-53.5 127t-95 91.5t-140 35q-121 0 -212.5 -62.5t-151.5 -161t-91 -220.5t-31 -241z" />
<glyph unicode="P" horiz-adv-x="1236" d="M168 0l252 1434h549q106 0 181 -34t122 -88.5t67.5 -122t20.5 -134.5q0 -92 -32 -181.5t-95.5 -159t-161.5 -111.5t-229 -42h-363l-98 -561h-213zM512 754h352q78 0 132.5 26.5t88 67.5t49 91t15.5 97q0 35 -9.5 72t-32 66.5t-61 48t-96.5 18.5h-352z" />
<glyph unicode="Q" horiz-adv-x="1411" d="M227 575q0 160 44 319t133.5 284t220.5 202.5t307 77.5q133 0 228 -51t156.5 -135t90.5 -190.5t29 -219.5q0 -109 -20.5 -217t-60.5 -207.5t-98.5 -184.5t-136.5 -147l82 -172l-172 -88l-80 168q-47 -18 -99.5 -28.5t-111.5 -10.5q-139 0 -236 50.5t-158.5 134.5 t-89.5 191.5t-28 223.5zM436 575q0 -78 16.5 -149.5t53.5 -128.5t94 -91t139 -34q35 0 66 7t59 20l-78 163l175 87l69 -150q49 49 86 113.5t61.5 138.5t37 152.5t12.5 158.5q0 74 -16.5 144.5t-53.5 127t-95 91.5t-140 35q-121 0 -212.5 -62.5t-151.5 -161t-91 -220.5 t-31 -241z" />
<glyph unicode="R" horiz-adv-x="1308" d="M168 0l252 1434h541q117 0 196.5 -36t127.5 -92.5t68.5 -126t20.5 -139.5q0 -68 -20.5 -137t-64.5 -129.5t-116.5 -106.5t-177.5 -65l185 -602h-224l-180 590h-293l-102 -590h-213zM518 784h361q86 0 140 23.5t87 60.5t45 81t12 85q0 39 -11 75t-36.5 64.5t-67.5 46 t-104 17.5h-346z" />
<glyph unicode="S" horiz-adv-x="1177" d="M164 317l194 72q35 -102 102.5 -159.5t180.5 -57.5q125 0 201 60.5t76 175.5q0 76 -44.5 124t-110 84.5t-143 71.5t-143 83t-109.5 117.5t-44 176.5q0 84 32.5 155.5t93 125t147.5 83t196 29.5q92 0 161.5 -23.5t119.5 -62.5t81 -89t43 -101l-188 -68q-23 61 -78 106.5 t-154 45.5q-115 0 -178 -54.5t-63 -134.5q0 -63 44 -103t111.5 -74t144 -68.5t144.5 -87t112 -128t44 -190.5q0 -106 -39 -190t-107.5 -141.5t-165 -88.5t-211.5 -31q-92 0 -165.5 27t-131 73t-95.5 108.5t-58 133.5z" />
<glyph unicode="T" horiz-adv-x="1148" d="M307 1235l33 199h973l-33 -199h-381l-219 -1235h-211l219 1235h-381z" />
<glyph unicode="U" horiz-adv-x="1359" d="M248 410q0 35 3 77.5t15 108.5l148 838h211l-152 -869q-8 -47 -11 -78.5t-3 -60.5q0 -74 21.5 -122t57 -77.5t83 -41t98.5 -11.5q63 0 121.5 16.5t106.5 57.5t85 112.5t55 180.5l158 893h209l-158 -906q-29 -158 -81 -264t-127.5 -170.5t-171.5 -91.5t-209 -27 q-96 0 -180.5 26t-146 79t-97 135t-35.5 195z" />
<glyph unicode="V" horiz-adv-x="1292" d="M330 1434h217l143 -979q4 -35 8 -78t4 -64q6 23 20.5 59t33.5 70l485 992h229l-718 -1434h-195z" />
<glyph unicode="W" horiz-adv-x="1640" d="M330 1434h209l2 -918q0 -27 -1 -59.5t-1 -42.5q4 10 16 40.5t25 61.5l395 918h174l76 -924q2 -23 3 -55.5t0 -42.5q4 10 13.5 38.5t20.5 55.5l333 928h222l-537 -1434h-190l-86 924q-4 33 -5.5 63.5t-1.5 44.5q-4 -10 -14 -39.5t-27 -64.5l-415 -928h-191z" />
<glyph unicode="X" horiz-adv-x="1222" d="M70 0l557 756l-271 678h226l186 -490l356 490h248l-518 -701l293 -733h-223l-211 543l-394 -543h-249z" />
<glyph unicode="Y" horiz-adv-x="1275" d="M309 1434h217l238 -662l473 662h231l-628 -869l-101 -565h-209l103 575z" />
<glyph unicode="Z" horiz-adv-x="1249" d="M109 0l26 156l940 1083h-704l32 195h981l-28 -158l-936 -1081h747l-34 -195h-1024z" />
<glyph unicode="[" horiz-adv-x="724" d="M147 -266l306 1724h452l-35 -192h-254l-235 -1340h254l-35 -192h-453z" />
<glyph unicode="\" horiz-adv-x="960" d="M229 1458h195l469 -1724h-197z" />
<glyph unicode="]" horiz-adv-x="724" d="M31 -266l35 192h253l236 1340h-254l35 192h455l-306 -1724h-454z" />
<glyph unicode="^" d="M270 719l453 739h172l328 -739h-203l-227 477l-320 -477h-203z" />
<glyph unicode="_" horiz-adv-x="983" d="M-74 -362l31 180h1004l-31 -180h-1004z" />
<glyph unicode="`" horiz-adv-x="765" d="M334 1499h270l223 -319h-194z" />
<glyph unicode="a" horiz-adv-x="1042" d="M133 279q0 98 36 171.5t97.5 123t143.5 74t172 24.5q80 0 141 -21.5t102 -48.5l13 66q10 51 10 77q0 82 -49 114t-115 32q-86 0 -174 -33t-156 -76l-28 170q74 45 171 82t214 37q51 0 109.5 -13.5t108.5 -48t82.5 -93t32.5 -146.5q0 -23 -3 -51.5t-9 -59.5l-114 -659 h-197l14 84q-45 -41 -119.5 -75t-169.5 -34q-139 0 -226 81t-87 223zM332 297q0 -61 42 -102t122 -41q86 0 155.5 36.5t116.5 83.5l29 158q-35 20 -90.5 42t-128.5 22q-47 0 -91.5 -11.5t-79 -35t-55 -61.5t-20.5 -91z" />
<glyph unicode="b" horiz-adv-x="1087" d="M145 0l246 1403l217 76l-90 -512q41 41 105.5 72.5t148.5 31.5q74 0 136.5 -29.5t108.5 -86t71.5 -136.5t25.5 -180q0 -160 -41 -283t-109.5 -208t-161 -129t-196.5 -44q-88 0 -152.5 36t-93.5 81l-16 -92h-199zM397 285q27 -49 75 -83t120 -34q76 0 135 36t99 97 t61.5 144t21.5 178q0 121 -52 188.5t-148 67.5q-70 0 -131.5 -36t-96.5 -83z" />
<glyph unicode="c" horiz-adv-x="983" d="M164 420q0 141 38 260t106.5 206t165.5 136t216 49q135 0 227.5 -70.5t120.5 -193.5l-196 -68q-14 59 -55.5 99.5t-118.5 40.5q-72 0 -127.5 -37t-93 -99.5t-57 -143.5t-19.5 -169q0 -117 45 -189.5t137 -72.5q70 0 128 36t97 120l176 -64q-55 -135 -163.5 -210 t-251.5 -75q-88 0 -158 33t-118 91.5t-73.5 140.5t-25.5 180z" />
<glyph unicode="d" horiz-adv-x="1089" d="M164 418q0 152 41 272.5t112.5 205.5t167 130t203.5 45q92 0 146.5 -33.5t80.5 -68.5l78 434l217 76l-260 -1479h-200l14 90q-47 -55 -112.5 -85t-147.5 -30q-80 0 -143.5 32t-106.5 90.5t-66.5 139t-23.5 181.5zM371 432q0 -55 11 -104t34.5 -84t60.5 -55.5t88 -20.5 q78 0 138.5 40t95.5 83l82 469q-18 41 -63.5 80t-125.5 39q-78 0 -137 -34t-100 -94.5t-62.5 -142.5t-21.5 -176z" />
<glyph unicode="e" horiz-adv-x="1040" d="M154 418q0 131 38.5 249.5t110.5 208t173.5 142.5t228.5 53q174 0 273 -100.5t99 -302.5q0 -63 -11 -118.5t-28 -107.5h-676v-24q0 -123 59.5 -191.5t158.5 -68.5q59 0 121.5 24.5t117.5 71.5l99 -139q-72 -66 -161 -103t-202 -37q-92 0 -167 32t-127 89.5t-79.5 139 t-27.5 182.5zM391 618h483q5 40 5 67v9q-4 55 -20.5 92t-43.5 60.5t-60.5 33t-70.5 9.5q-59 0 -107.5 -20.5t-85 -57.5t-62.5 -86t-38 -107z" />
<glyph unicode="f" horiz-adv-x="645" d="M188 864l33 183h154l31 174q12 70 40.5 116.5t65.5 73.5t81 38t87 11q55 0 101 -15t87 -38l-30 -170q-41 20 -73 28.5t-65 8.5q-47 0 -68.5 -27.5t-29.5 -68.5l-24 -131h221l-31 -183h-221l-154 -864h-203l154 864h-156z" />
<glyph unicode="g" horiz-adv-x="1089" d="M164 406q0 147 39 270t108.5 211t162.5 136t204 48q68 0 131 -28.5t104 -84.5l17 89h205l-185 -1027q-23 -129 -72 -212.5t-121.5 -133t-164.5 -71t-203 -27.5l-67 168q109 6 184.5 26.5t124.5 52.5t75.5 75t36.5 94l17 96q-39 -47 -101.5 -80t-154.5 -33 q-80 0 -142.5 32t-106.5 89.5t-67.5 136t-23.5 173.5zM369 430q0 -117 51 -189.5t145 -72.5q74 0 134.5 38t97.5 91l82 459q-18 45 -68.5 84t-128.5 39q-76 0 -134.5 -36t-98 -97.5t-60 -143.5t-20.5 -172z" />
<glyph unicode="h" horiz-adv-x="1101" d="M145 0l246 1403l217 76l-96 -545q51 61 119.5 99t152.5 38q154 0 227.5 -85t73.5 -232q0 -35 -5 -79t-13 -87l-104 -588h-201l108 608q4 23 7.5 49.5t3.5 49.5q0 92 -44 133t-118 41q-43 0 -84 -13.5t-77 -44t-62.5 -80t-38.5 -120.5l-109 -623h-203z" />
<glyph unicode="i" horiz-adv-x="493" d="M145 0l185 1047h202l-184 -1047h-203zM358 1319q0 61 43 103t95 42q49 0 77.5 -29.5t28.5 -72.5q0 -61 -43 -103t-96 -42q-47 0 -76 29.5t-29 72.5z" />
<glyph unicode="j" horiz-adv-x="501" d="M-154 -279q74 10 125.5 28t85 44.5t53 64.5t27.5 91l195 1098h203l-193 -1092q-16 -96 -49 -166t-84 -117t-124 -75.5t-171 -45.5zM360 1319q0 61 43 103t95 42q49 0 77.5 -29.5t28.5 -72.5q0 -61 -44 -103t-97 -42q-47 0 -75 29.5t-28 72.5z" />
<glyph unicode="k" horiz-adv-x="1030" d="M145 0l246 1403l217 76l-135 -766l367 334h254l-344 -308l241 -739h-219l-184 596l-162 -147l-78 -449h-203z" />
<glyph unicode="l" horiz-adv-x="509" d="M150 0l247 1403l217 76l-262 -1479h-202z" />
<glyph unicode="m" horiz-adv-x="1673" d="M145 0l185 1047h198l-16 -101q53 59 126 92t150 33q84 0 146.5 -43t91.5 -115q129 158 328 158q55 0 109.5 -18.5t97.5 -55t69.5 -94t26.5 -137.5q0 -23 -2 -44.5t-6 -45.5l-121 -676h-207l113 635q6 39 6 74q0 94 -45 133t-103 39q-35 0 -72.5 -14.5t-71.5 -44 t-59.5 -76t-35.5 -109.5l-113 -637h-207l111 635q8 35 8 74q0 94 -45 133t-105 39q-35 0 -72.5 -14.5t-71.5 -44t-60.5 -76t-36.5 -109.5l-113 -637h-203z" />
<glyph unicode="n" horiz-adv-x="1101" d="M145 0l185 1047h202l-18 -111q49 61 120 98t148 37q150 0 226.5 -89t76.5 -243q0 -70 -16 -151l-104 -588h-203l106 604q10 51 11 98q0 86 -41 132.5t-121 46.5q-43 0 -85 -17.5t-78 -51.5t-61.5 -82t-35.5 -112l-109 -618h-203z" />
<glyph unicode="o" horiz-adv-x="1069" d="M162 418q0 125 37 243.5t105.5 209t169.5 145.5t231 55q96 0 168.5 -35t120.5 -94t72 -139t24 -168q0 -129 -36 -248t-104.5 -211t-168 -146.5t-226.5 -54.5q-102 0 -176 33t-122 91.5t-71.5 140.5t-23.5 178zM365 436q0 -117 48 -192.5t152 -75.5q76 0 136.5 38 t101.5 101.5t62.5 142t21.5 162.5q0 55 -11.5 103.5t-36 85.5t-63.5 57.5t-92 20.5q-76 0 -135.5 -39t-100 -101.5t-62 -141.5t-21.5 -161z" />
<glyph unicode="p" horiz-adv-x="1093" d="M70 -414l258 1461h202l-16 -91q45 47 109.5 81t158.5 34q74 0 134.5 -30.5t105.5 -87t69.5 -137.5t24.5 -181q0 -158 -42 -281t-112.5 -207t-161 -128t-186.5 -44t-156.5 35t-95.5 82l-75 -430zM397 291q29 -53 78 -88t129 -35q70 0 126 32.5t96 91t62.5 140.5t22.5 180 q0 121 -48 194t-146 73q-74 0 -138.5 -37t-101.5 -92z" />
<glyph unicode="q" horiz-adv-x="1091" d="M162 408q0 152 41 274.5t111.5 208.5t163.5 133t200 47q100 0 157.5 -38t79.5 -79l17 93h203l-244 -1383l-217 -74l88 500q-51 -51 -114.5 -83t-151.5 -32q-154 0 -244 116t-90 317zM369 424q0 -121 48 -188.5t146 -67.5q39 0 74 12.5t65.5 30.5t54 39.5t42.5 42.5 l80 461q-20 59 -70.5 92t-116.5 33q-70 0 -129 -36t-102 -97.5t-67.5 -144.5t-24.5 -177z" />
<glyph unicode="r" horiz-adv-x="772" d="M141 0l185 1047h202l-22 -123q51 72 118.5 109.5t139.5 37.5q47 0 86 -17.5t65 -43.5l-61 -193q-25 20 -60.5 36.5t-82.5 16.5q-33 0 -72 -13t-77 -46t-68.5 -87t-44.5 -136l-105 -588h-203z" />
<glyph unicode="s" horiz-adv-x="911" d="M113 162l149 117q31 -45 89.5 -86t144.5 -41q74 0 130 33.5t56 101.5q0 45 -34 75.5t-84 58.5t-109.5 55.5t-109.5 65.5t-84 90t-34 128q0 74 29 131t80 97t120.5 61.5t151.5 21.5q123 0 211 -49t131 -115l-149 -112q-29 35 -78 68.5t-131 33.5q-72 0 -120 -34t-48 -91 q0 -39 34 -67.5t85 -53t111.5 -53.5t111.5 -67.5t85 -95t34 -136.5q0 -150 -109.5 -237t-296.5 -87q-125 0 -222 52.5t-144 134.5z" />
<glyph unicode="t" horiz-adv-x="718" d="M182 864l33 183h166l63 356l215 76l-75 -432h237l-30 -183h-238l-98 -553q-4 -27 -7.5 -45t-3.5 -35q0 -35 17.5 -54t62.5 -19t82 13t76 34l-47 -187q-90 -43 -205 -43q-94 0 -144 53.5t-50 139.5q0 23 3 52.5t9 60.5l102 583h-168z" />
<glyph unicode="u" horiz-adv-x="1101" d="M193 299q0 29 4 60.5t8 66.5l108 621h205l-108 -609q-6 -35 -8.5 -57.5t-2.5 -38.5q0 -92 45 -133t117 -41q45 0 89 12.5t80 42t62.5 76.5t38.5 117l111 631h203l-184 -1047h-203l18 98q-104 -123 -287 -123q-63 0 -117.5 19.5t-94 59.5t-62 101.5t-22.5 143.5z" />
<glyph unicode="v" horiz-adv-x="1013" d="M231 1047h203l109 -668q4 -25 8 -56.5t4 -43.5q6 12 21.5 43.5t27.5 56.5l342 668h211l-545 -1047h-194z" />
<glyph unicode="w" horiz-adv-x="1400" d="M236 1047h194l35 -652q2 -29 2 -60.5v-47.5q6 16 20.5 50t24.5 58l283 652h174l61 -652q4 -31 5 -64.5t1 -43.5q6 16 17.5 48t23.5 60l256 652h201l-436 -1047h-187l-71 610q-4 27 -6.5 65t-2.5 54q-4 -8 -10 -24.5t-13 -34t-14.5 -35t-11.5 -27.5l-272 -608h-184z" />
<glyph unicode="x" horiz-adv-x="1044" d="M57 0l445 545l-238 502h221l156 -334l272 334h232l-418 -512l254 -535h-219l-174 367l-299 -367h-232z" />
<glyph unicode="y" horiz-adv-x="1032" d="M190 -397l226 424l-193 1020h205l117 -682q4 -27 8 -51.5t6 -34.5q4 12 17.5 37.5t25.5 48.5l363 682h219l-776 -1444h-218z" />
<glyph unicode="z" horiz-adv-x="987" d="M104 0l27 147l625 715h-461l33 185h731l-25 -146l-628 -719h499l-33 -182h-768z" />
<glyph unicode="{" horiz-adv-x="714" d="M176 506l33 180h33q53 0 92 49t53 129l33 185q35 193 161 301t322 108l-33 -184q-106 -4 -170.5 -69.5t-87.5 -186.5l-26 -154q-14 -84 -39 -135t-57.5 -81t-73.5 -40t-88 -12l-2 -8q70 -6 120 -50t50 -151q0 -23 -3.5 -45.5t-7.5 -50.5l-22 -125q-4 -20 -6 -37.5 t-2 -34.5q0 -84 43 -130t133 -50l-33 -180q-147 12 -240.5 98t-93.5 262q0 59 12 131l19 103q2 14 3 28.5t1 26.5q0 55 -22.5 89t-65.5 34h-35z" />
<glyph unicode="|" horiz-adv-x="530" d="M94 -420l365 2069h198l-364 -2069h-199z" />
<glyph unicode="}" horiz-adv-x="714" d="M20 -266l33 182q109 4 172.5 70.5t85.5 187.5l25 141q27 150 90 216.5t176 66.5l2 8q-78 16 -125 64.5t-47 144.5q0 18 2 40t6 44l21 119q4 20 6 39.5t2 36.5q0 176 -176 184l33 180q160 -8 249 -92t89 -260q0 -33 -4.5 -67.5t-10.5 -73.5l-16 -97q-4 -18 -6 -35.5 t-2 -46.5q0 -47 22.5 -74.5t67.5 -27.5h33l-33 -178h-29q-57 0 -95 -49t-52 -129l-35 -191q-35 -195 -154 -299t-330 -104z" />
<glyph unicode="~" d="M272 543q4 61 22.5 118.5t53.5 101.5t86 70.5t123 26.5q61 0 113.5 -18.5t98.5 -41t88 -41t85 -18.5q55 0 89 33t44 86h139q-4 -61 -22 -118.5t-53 -101.5t-87 -70.5t-122 -26.5q-61 0 -113.5 18.5t-98.5 41t-88 41t-85 18.5q-55 0 -89 -33t-44 -86h-140z" />
<glyph unicode="&#xa1;" horiz-adv-x="530" d="M92 -410l80 451l164 608h84l-51 -608l-78 -451h-199zM281 899q0 72 49 122t119 50q57 0 90.5 -37t33.5 -88q0 -35 -13 -66.5t-36.5 -55t-53 -37t-62.5 -13.5q-59 0 -93 37t-34 88z" />
<glyph unicode="&#xa2;" horiz-adv-x="1009" d="M209 604q0 125 29.5 232.5t86 191.5t135.5 141.5t177 79.5l37 209h192l-39 -205q104 -20 170 -83.5t88 -172.5l-200 -67q-12 59 -51 97t-111 38q-74 0 -130 -34t-96 -93t-60.5 -140t-20.5 -175q0 -113 46 -184.5t140 -71.5q63 0 120.5 36.5t92.5 116.5l180 -61 q-51 -127 -142 -200t-214 -87l-35 -197h-192l37 211q-117 37 -178.5 147.5t-61.5 270.5z" />
<glyph unicode="&#xa3;" horiz-adv-x="1153" d="M156 0l37 207q51 23 93 65.5t71.5 95t47 108.5t23.5 106h-178l33 182h137q-10 37 -23.5 90t-13.5 121q0 94 33 181t98.5 154.5t166.5 107.5t239 40q129 0 225 -41t164 -102l-109 -189q-18 18 -46 42t-65.5 44.5t-88 35t-113.5 14.5q-78 0 -133.5 -22.5t-91 -60.5 t-53 -86.5t-17.5 -99.5q0 -59 18.5 -118.5t24.5 -110.5h328l-33 -182h-291q-14 -111 -74.5 -207t-152.5 -178h716l-34 -197h-938z" />
<glyph unicode="&#xa4;" horiz-adv-x="1232" d="M119 266l164 146q-12 33 -18.5 80t-6.5 83q0 109 29.5 200t91.5 177l-115 146l168 149l109 -137q61 37 132.5 58.5t151.5 21.5q156 0 252 -80l156 137l121 -155l-160 -142q10 -35 15 -82t5 -86q0 -102 -28.5 -195t-93.5 -181l116 -146l-168 -147l-112 141 q-127 -80 -281 -80t-254 78l-155 -139zM463 621q0 -106 57.5 -177t161.5 -71q70 0 130 28.5t104.5 77.5t69 117t24.5 145q0 106 -57.5 178t-161.5 72q-68 0 -128.5 -28.5t-104.5 -78.5t-69.5 -118t-25.5 -145z" />
<glyph unicode="&#xa5;" horiz-adv-x="1116" d="M203 211l28 162h293l23 133h-293l29 162h278l-280 766h219l202 -588l412 588h223l-549 -766h269l-29 -162h-283l-22 -133h281l-27 -162h-283l-37 -211h-198l37 211h-293z" />
<glyph unicode="&#xa6;" horiz-adv-x="530" d="M125 -246l121 692h94h102l-123 -692h-194zM305 780l123 695h195l-123 -695h-195z" />
<glyph unicode="&#xa7;" horiz-adv-x="1024" d="M86 -39l172 119q12 -18 32.5 -41t51.5 -42.5t72 -32.5t94 -13q100 0 165.5 36t65.5 126q0 39 -24.5 68.5t-64.5 55t-89 48t-98 47.5q-45 23 -88 46t-76 54t-52.5 72t-19.5 96q0 98 54.5 166t130.5 102q-47 35 -73 94.5t-26 127.5q0 86 35 154.5t95.5 116.5t139.5 72.5 t167 24.5q70 0 128 -14t103 -39t78 -56.5t53 -64.5l-170 -123q-25 33 -73 64.5t-140 31.5t-147.5 -36.5t-55.5 -102.5q0 -31 19.5 -55.5t53.5 -47t80 -44t97 -43.5q49 -23 96.5 -46.5t83 -57t57 -79t21.5 -106.5q0 -94 -35.5 -161.5t-121.5 -115.5q80 -80 79 -215 q0 -86 -31.5 -158.5t-91 -124.5t-144.5 -81t-193 -29q-150 0 -256.5 59.5t-153.5 147.5zM442 647q0 -33 23.5 -57.5t63.5 -46t92.5 -42t109.5 -44.5q41 16 66.5 49t25.5 78q0 33 -19.5 59.5t-53 48t-77.5 41t-93 37.5q-63 -10 -100.5 -43t-37.5 -80z" />
<glyph unicode="&#xa8;" horiz-adv-x="765" d="M383 1319q0 59 42 100t95 41q47 0 75 -29.5t28 -72.5q0 -59 -42.5 -101.5t-97.5 -42.5q-45 0 -72.5 31t-27.5 74zM733 1319q0 59 43 100t96 41q47 0 75 -29.5t28 -72.5q0 -59 -43 -101.5t-96 -42.5q-47 0 -75 31t-28 74z" />
<glyph unicode="&#xa9;" horiz-adv-x="1658" d="M207 717q0 158 56 293t156.5 235.5t236 156.5t292.5 56q158 0 293 -56t235.5 -156.5t157 -236t56.5 -292.5q0 -158 -56.5 -293t-157 -235.5t-235.5 -157t-293 -56.5t-293 56.5t-235.5 157t-156.5 235.5t-56 293zM358 717q0 -127 44 -236.5t123 -189.5t187.5 -126 t235.5 -46t234.5 46t185.5 126t122 189.5t44 236.5t-44 236.5t-122 189.5t-185.5 125t-234.5 45t-235.5 -45t-187.5 -125t-123 -189.5t-44 -236.5zM586 721q0 88 22.5 169t69.5 142.5t117.5 98t169.5 36.5q115 0 190.5 -55t116.5 -151l-158 -72q-23 49 -60.5 80.5 t-97.5 31.5q-55 0 -93 -22.5t-60.5 -61t-31.5 -89t-9 -107.5q0 -61 10 -112.5t33.5 -88.5t61.5 -58.5t91 -21.5q55 0 99.5 29t64.5 94l154 -57q-84 -229 -320 -230q-96 0 -165.5 34t-115.5 94.5t-67.5 141.5t-21.5 175z" />
<glyph unicode="&#xaa;" horiz-adv-x="858" d="M219 805q0 86 33 147.5t84 102.5t115.5 60.5t128.5 19.5q53 0 106 -13.5t88 -31.5l4 32q4 25 6 37t2 27q0 115 -145 114q-68 0 -131.5 -23.5t-114.5 -57.5l-22 149q57 39 139 64.5t178 25.5q45 0 93 -11t88 -39t65 -74t25 -115q0 -20 -3.5 -43t-9.5 -58l-94 -538h-172 l12 61q-35 -31 -93 -56.5t-130 -25.5q-51 0 -97 16.5t-80 47t-54.5 76.5t-20.5 106zM389 825q0 -49 33 -80.5t92 -31.5t114.5 26.5t92.5 57.5l24 141q-31 16 -76.5 29.5t-90.5 13.5q-35 0 -69 -9t-60.5 -27.5t-43 -48.5t-16.5 -71z" />
<glyph unicode="&#xab;" horiz-adv-x="1019" d="M152 524l391 523h213l-394 -533l205 -514h-209zM567 524l391 523h218l-396 -533l205 -514h-115h-96z" />
<glyph unicode="&#xac;" d="M266 768v197h938v-621h-207v424h-731z" />
<glyph unicode="&#xad;" horiz-adv-x="772" d="M238 508l34 199h478l-35 -199h-477z" />
<glyph unicode="&#xae;" horiz-adv-x="1658" d="M207 717q0 158 56 293t156.5 235.5t236 156.5t292.5 56q158 0 293 -56t235.5 -156.5t157 -236t56.5 -292.5q0 -158 -56.5 -293t-157 -235.5t-235.5 -157t-293 -56.5t-293 56.5t-235.5 157t-156.5 235.5t-56 293zM358 717q0 -127 44 -236.5t123 -189.5t187.5 -126 t235.5 -46t234.5 46t185.5 126t122 189.5t44 236.5t-44 236.5t-122 189.5t-185.5 125t-234.5 45t-235.5 -45t-187.5 -125t-123 -189.5t-44 -236.5zM645 283v864h383q74 0 124 -23.5t80 -61.5t43 -84t13 -91q0 -84 -49 -157t-145 -97l190 -350h-190l-174 338h-107v-338h-168z M813 772h217q47 0 70.5 35t23.5 78q0 35 -21.5 70.5t-72.5 35.5h-217v-219z" />
<glyph unicode="&#xaf;" horiz-adv-x="765" d="M350 1223l29 172h649l-29 -172h-649z" />
<glyph unicode="&#xb0;" horiz-adv-x="786" d="M264 1237q0 86 32 158.5t86 125t126 82t149 29.5q74 0 132.5 -24.5t100.5 -67.5t63.5 -103.5t21.5 -129.5q0 -86 -32 -159t-86 -126t-125.5 -83t-149.5 -30q-74 0 -132.5 24.5t-99.5 69t-63.5 104.5t-22.5 130zM461 1247q0 -61 37 -102t98 -41q37 0 69.5 14.5t58.5 41 t40 62t14 76.5q0 63 -35.5 103.5t-97.5 40.5q-37 0 -69.5 -14.5t-58 -41t-41 -61.5t-15.5 -78z" />
<glyph unicode="&#xb1;" d="M272 0v197h938v-197h-938zM272 727v197h365v321h207v-321h366v-197h-366v-321h-207v321h-365z" />
<glyph unicode="&#xb2;" horiz-adv-x="696" d="M207 909q14 86 44 149.5t74 117t106.5 99.5t146.5 95q63 39 103 77t40 95q0 35 -22.5 62.5t-75.5 27.5q-109 0 -158 -121l-141 45q45 102 126.5 167t200.5 65t183.5 -67.5t64.5 -164.5q0 -53 -14.5 -95t-45 -78.5t-81.5 -73.5t-125 -80q-68 -41 -115 -79t-74 -83h365 l-29 -158h-573z" />
<glyph unicode="&#xb3;" horiz-adv-x="679" d="M229 1122l160 52q23 -131 133 -132q66 0 103 38t37 94q0 43 -26 73.5t-75 30.5h-74l27 145h57q66 0 95.5 41t29.5 86q0 35 -21.5 60.5t-64.5 25.5t-80.5 -28.5t-64.5 -73.5l-133 53q51 90 134 145.5t185 55.5q100 0 160.5 -56.5t60.5 -142.5q0 -78 -43 -138t-102 -89 q45 -16 76 -63.5t31 -112.5q0 -66 -25 -119t-68 -93t-102 -61.5t-131 -21.5q-125 0 -192.5 63.5t-86.5 167.5z" />
<glyph unicode="&#xb4;" horiz-adv-x="765" d="M467 1180l336 319h268l-409 -319h-195z" />
<glyph unicode="&#xb5;" horiz-adv-x="1112" d="M70 -414l258 1461h200l-108 -609q-4 -27 -7 -52.5t-3 -53.5q0 -66 36.5 -115t128.5 -49q43 0 85 13.5t79 44t63.5 80.5t39.5 122l110 619h201l-184 -1047h-201l18 109q-49 -68 -116.5 -101t-139.5 -33q-55 0 -102 22.5t-70 68.5l-71 -404z" />
<glyph unicode="&#xb6;" horiz-adv-x="1228" d="M207 938q0 80 26.5 167t89 160.5t164 121t248.5 47.5h592l-278 -1588l-215 -94l260 1481h-172l-275 -1548l-215 -95l172 975q-106 2 -182 35t-123 85t-69.5 118.5t-22.5 134.5z" />
<glyph unicode="&#xb7;" horiz-adv-x="428" d="M195 692q0 35 13 67t36.5 55.5t53.5 36.5t62 13q59 0 92 -38t33 -89q0 -72 -48 -122t-120 -50q-55 0 -88.5 38t-33.5 89z" />
<glyph unicode="&#xb8;" horiz-adv-x="765" d="M111 -406l110 72q10 -14 26.5 -24.5t47.5 -10.5q47 0 81 28t34 73q0 37 -26 58.5t-69 21.5q-49 0 -82 -19l-30 49l170 178h110l-96 -124q102 0 144 -45.5t42 -104.5q0 -104 -76.5 -169.5t-201.5 -65.5q-74 0 -118 24.5t-66 58.5z" />
<glyph unicode="&#xb9;" horiz-adv-x="387" d="M276 909l115 650h-96l22 129q59 0 95.5 22.5t58.5 63.5h125l-154 -865h-166z" />
<glyph unicode="&#xba;" horiz-adv-x="886" d="M233 913q0 123 34 224.5t95.5 172t146.5 109.5t187 39q145 0 229.5 -96t84.5 -262q0 -123 -33 -223.5t-94.5 -171t-146.5 -109.5t-189 -39q-143 0 -228.5 95.5t-85.5 260.5zM412 944q0 -102 41.5 -158.5t117.5 -56.5q61 0 110.5 25.5t82.5 71.5t50 109.5t17 139.5 q0 100 -40.5 155.5t-118.5 55.5q-59 0 -106.5 -24.5t-82 -69.5t-53 -108.5t-18.5 -139.5z" />
<glyph unicode="&#xbb;" horiz-adv-x="1019" d="M23 0l397 530l-201 517h209l207 -523l-391 -524h-221zM440 0l398 530l-201 517h209l207 -523l-391 -524h-222z" />
<glyph unicode="&#xbc;" horiz-adv-x="1394" d="M16 -25l1202 1483h195l-1202 -1483h-195zM229 580l115 649h-96l22 129q59 0 94 22.5t58 63.5h125l-152 -864h-166zM678 193l18 104l525 567h143l-92 -522h106l-26 -149h-107l-32 -193h-160l33 193h-408zM899 342h213l53 295z" />
<glyph unicode="&#xbd;" horiz-adv-x="1486" d="M16 -25l1202 1483h195l-1202 -1483h-195zM229 580l115 649h-96l22 129q59 0 94 22.5t58 63.5h125l-152 -864h-166zM807 0q16 90 50 159.5t82 123t108.5 96.5t130.5 82q63 37 103 74.5t40 99.5q0 33 -22.5 60.5t-75.5 27.5q-57 0 -95 -30.5t-65 -90.5l-139 45 q45 102 127 167t201 65q117 0 181 -62.5t64 -161.5q0 -66 -18.5 -113.5t-55 -86.5t-89 -72t-119.5 -70q-70 -39 -113 -74.5t-70 -80.5h377l-28 -158h-574z" />
<glyph unicode="&#xbe;" horiz-adv-x="1662" d="M168 791l162 51q23 -131 131 -131q66 0 103.5 40t37.5 99q0 39 -24.5 68.5t-77.5 29.5h-72l27 146h57q66 0 96.5 40t30.5 87q0 35 -21.5 60.5t-64.5 25.5q-47 0 -84 -29t-63 -74l-134 53q51 90 137.5 145.5t184.5 55.5q104 0 161.5 -56t57.5 -142q0 -78 -43 -138.5 t-102 -89.5q49 -18 77.5 -62t28.5 -104q0 -68 -24.5 -124t-69.5 -97t-108.5 -63.5t-139.5 -22.5q-115 0 -180.5 62.5t-83.5 169.5zM282 -25l1202 1483h195l-1202 -1483h-195zM944 193l18 104l525 567h143l-92 -522h106l-26 -149h-107l-32 -193h-160l33 193h-408zM1165 342 h213l53 295z" />
<glyph unicode="&#xbf;" horiz-adv-x="983" d="M61 -72q0 96 30 163t76 116t101.5 89t106.5 84t91 99.5t56 134.5l8 45h199l-10 -47q-20 -100 -61.5 -170.5t-92.5 -121t-104 -89t-97.5 -77.5t-72 -86.5t-27.5 -112.5q0 -70 46 -120t143 -50q121 0 202.5 73.5t106.5 209.5h196q-18 -111 -67 -200t-121 -150.5t-162 -94.5 t-190 -33q-86 0 -152.5 27t-111.5 73t-69 107.5t-24 130.5zM530 899q0 72 49.5 122t118.5 50q57 0 90 -37t33 -88q0 -35 -13 -66.5t-35.5 -55t-53.5 -37t-64 -13.5q-59 0 -92 37t-33 88z" />
<glyph unicode="&#xc0;" horiz-adv-x="1349" d="M76 0l753 1434h193l254 -1434h-213l-55 334h-535l-174 -334h-223zM569 522h408l-82 488q-4 23 -10 62.5t-8 57.5q-8 -18 -25.5 -56t-30.5 -62zM617 1888h270l223 -319h-194z" />
<glyph unicode="&#xc1;" horiz-adv-x="1349" d="M76 0l753 1434h193l254 -1434h-213l-55 334h-535l-174 -334h-223zM569 522h408l-82 488q-4 23 -10 62.5t-8 57.5q-8 -18 -25.5 -56t-30.5 -62zM762 1569l336 319h268l-409 -319h-195z" />
<glyph unicode="&#xc2;" horiz-adv-x="1349" d="M76 0l753 1434h193l254 -1434h-213l-55 334h-535l-174 -334h-223zM569 522h408l-82 488q-4 23 -10 62.5t-8 57.5q-8 -18 -25.5 -56t-30.5 -62zM572 1569l331 319h203l221 -319h-182l-166 174l-227 -174h-180z" />
<glyph unicode="&#xc3;" horiz-adv-x="1349" d="M76 0l753 1434h193l254 -1434h-213l-55 334h-535l-174 -334h-223zM569 522h408l-82 488q-4 23 -10 62.5t-8 57.5q-8 -18 -25.5 -56t-30.5 -62zM598 1610q20 117 79.5 185.5t170.5 68.5q51 0 92 -15.5t76 -34t67.5 -34t69.5 -15.5t67.5 21.5t43.5 68.5h96 q-20 -117 -78.5 -185.5t-169.5 -68.5q-53 0 -93 15.5t-76 34t-68.5 34t-69.5 15.5t-67.5 -21.5t-41.5 -68.5h-98z" />
<glyph unicode="&#xc4;" horiz-adv-x="1349" d="M76 0l753 1434h193l254 -1434h-213l-55 334h-535l-174 -334h-223zM569 522h408l-82 488q-4 23 -10 62.5t-8 57.5q-8 -18 -25.5 -56t-30.5 -62zM680 1708q0 59 42 100t95 41q47 0 75 -29.5t28 -72.5q0 -59 -42.5 -101.5t-97.5 -42.5q-45 0 -72.5 31t-27.5 74zM1030 1708 q0 59 43 100t96 41q47 0 75 -29.5t28 -72.5q0 -59 -43 -101.5t-96 -42.5q-47 0 -75 31t-28 74z" />
<glyph unicode="&#xc5;" horiz-adv-x="1349" d="M76 0l692 1319q-31 27 -54.5 72t-23.5 104q0 49 19.5 97t56.5 87t88 62.5t115 23.5q96 0 158.5 -61.5t62.5 -149.5q0 -74 -42 -135t-106 -98l234 -1321h-213l-55 334h-535l-174 -334h-223zM569 522h408l-80 477q-4 27 -10 65t-10 64q-10 -25 -30 -62.5t-34 -66.5z M844 1511q0 -41 21.5 -67.5t60.5 -26.5q43 0 75.5 34t32.5 83q0 37 -20.5 62.5t-61.5 25.5q-45 0 -76.5 -33t-31.5 -78z" />
<glyph unicode="&#xc6;" horiz-adv-x="1714" d="M-47 0l1051 1434h817l-33 -197h-561l-70 -399h328l-37 -195h-326l-78 -448h603l-35 -195h-811l59 334h-432l-242 -334h-233zM567 522h326l108 615q-14 -25 -33.5 -54.5t-39.5 -58.5z" />
<glyph unicode="&#xc7;" horiz-adv-x="1255" d="M227 559q0 166 45 327t135.5 287.5t223.5 204.5t309 78q92 0 161.5 -21.5t120 -59.5t84 -88t54.5 -107l-193 -90q-14 33 -35.5 63.5t-50 54t-68.5 38t-91 14.5q-121 0 -211 -65t-149.5 -165t-89.5 -221t-30 -231q0 -80 16.5 -153t51.5 -128t88 -88t127 -33 q111 0 188.5 49t130.5 131l179 -75q-82 -135 -202 -214t-278 -90l-59 -81q100 0 143 -44.5t43 -101.5q0 -51 -21.5 -95t-59 -76t-90 -50t-113.5 -18q-72 0 -115 20t-68 55l115 74q14 -29 68 -29q49 0 84 29t35 74q0 33 -27 55.5t-68 22.5q-47 0 -80 -19l-32 49l133 140 q-104 12 -180 62t-125.5 128t-74 177.5t-24.5 209.5z" />
<glyph unicode="&#xc8;" horiz-adv-x="1177" d="M168 0l252 1434h864l-33 -197h-653l-70 -399h410l-37 -195h-407l-78 -448h694l-35 -195h-907zM572 1888h270l223 -319h-194z" />
<glyph unicode="&#xc9;" horiz-adv-x="1177" d="M168 0l252 1434h864l-33 -197h-653l-70 -399h410l-37 -195h-407l-78 -448h694l-35 -195h-907zM739 1569l336 319h268l-409 -319h-195z" />
<glyph unicode="&#xca;" horiz-adv-x="1177" d="M168 0l252 1434h864l-33 -197h-653l-70 -399h410l-37 -195h-407l-78 -448h694l-35 -195h-907zM508 1569l331 319h203l221 -319h-182l-166 174l-227 -174h-180z" />
<glyph unicode="&#xcb;" horiz-adv-x="1177" d="M168 0l252 1434h864l-33 -197h-653l-70 -399h410l-37 -195h-407l-78 -448h694l-35 -195h-907zM616 1708q0 59 42 100t95 41q47 0 75 -29.5t28 -72.5q0 -59 -42.5 -101.5t-97.5 -42.5q-45 0 -72.5 31t-27.5 74zM966 1708q0 59 43 100t96 41q47 0 75 -29.5t28 -72.5 q0 -59 -43 -101.5t-96 -42.5q-47 0 -75 31t-28 74z" />
<glyph unicode="&#xcc;" horiz-adv-x="548" d="M168 0l252 1434h213l-252 -1434h-213zM221 1888h270l223 -319h-194z" />
<glyph unicode="&#xcd;" horiz-adv-x="548" d="M168 0l252 1434h213l-252 -1434h-213zM356 1569l336 319h268l-409 -319h-195z" />
<glyph unicode="&#xce;" horiz-adv-x="548" d="M166 1569l331 319h203l221 -319h-182l-166 174l-227 -174h-180zM168 0l252 1434h213l-252 -1434h-213z" />
<glyph unicode="&#xcf;" horiz-adv-x="548" d="M168 0l252 1434h213l-252 -1434h-213zM279 1708q0 59 42 100t95 41q47 0 75 -29.5t28 -72.5q0 -59 -42.5 -101.5t-97.5 -42.5q-45 0 -72.5 31t-27.5 74zM629 1708q0 59 43 100t96 41q47 0 75 -29.5t28 -72.5q0 -59 -43 -101.5t-96 -42.5q-47 0 -75 31t-28 74z" />
<glyph unicode="&#xd0;" horiz-adv-x="1357" d="M154 618l34 193h127l109 623h403q143 0 248 -51.5t172.5 -137.5t100 -199.5t32.5 -238.5q0 -129 -37.5 -270.5t-127 -261t-237 -197.5t-366.5 -78h-440l111 618h-129zM414 195h213q147 0 248.5 57t165 146t91 196.5t27.5 206.5q0 88 -20.5 167t-62.5 139t-107.5 95 t-155.5 35h-215l-76 -426h293l-35 -193h-291z" />
<glyph unicode="&#xd1;" horiz-adv-x="1384" d="M168 0l252 1434h196l424 -965q6 -14 19.5 -48t17.5 -48q2 14 6 46t9 48l170 967h208l-251 -1434h-197l-412 928q-4 8 -12 27.5t-15.5 39t-14.5 37t-9 23.5q0 -6 -2 -22.5t-5 -37t-6 -40t-5 -29.5l-164 -926h-209zM612 1610q20 117 79.5 185.5t170.5 68.5q51 0 92 -15.5 t76 -34t67.5 -34t69.5 -15.5t67.5 21.5t43.5 68.5h96q-20 -117 -78.5 -185.5t-169.5 -68.5q-53 0 -93 15.5t-76 34t-68.5 34t-69.5 15.5t-67.5 -21.5t-41.5 -68.5h-98z" />
<glyph unicode="&#xd2;" horiz-adv-x="1411" d="M227 575q0 160 44 319t133.5 284t220.5 202.5t307 77.5q133 0 228 -51t156.5 -135t90.5 -190.5t29 -219.5q0 -164 -45 -322.5t-133.5 -284.5t-218.5 -203t-300 -77q-139 0 -236 50.5t-158.5 134.5t-89.5 191.5t-28 223.5zM436 575q0 -78 16.5 -149.5t53.5 -128.5t94 -91 t139 -34q119 0 210 60.5t152.5 157.5t93.5 221t32 251q0 74 -16.5 144.5t-53.5 127t-95 91.5t-140 35q-121 0 -212.5 -62.5t-151.5 -161t-91 -220.5t-31 -241zM666 1888h270l223 -319h-194z" />
<glyph unicode="&#xd3;" horiz-adv-x="1411" d="M227 575q0 160 44 319t133.5 284t220.5 202.5t307 77.5q133 0 228 -51t156.5 -135t90.5 -190.5t29 -219.5q0 -164 -45 -322.5t-133.5 -284.5t-218.5 -203t-300 -77q-139 0 -236 50.5t-158.5 134.5t-89.5 191.5t-28 223.5zM436 575q0 -78 16.5 -149.5t53.5 -128.5t94 -91 t139 -34q119 0 210 60.5t152.5 157.5t93.5 221t32 251q0 74 -16.5 144.5t-53.5 127t-95 91.5t-140 35q-121 0 -212.5 -62.5t-151.5 -161t-91 -220.5t-31 -241zM811 1569l336 319h268l-409 -319h-195z" />
<glyph unicode="&#xd4;" horiz-adv-x="1411" d="M227 575q0 160 44 319t133.5 284t220.5 202.5t307 77.5q133 0 228 -51t156.5 -135t90.5 -190.5t29 -219.5q0 -164 -45 -322.5t-133.5 -284.5t-218.5 -203t-300 -77q-139 0 -236 50.5t-158.5 134.5t-89.5 191.5t-28 223.5zM436 575q0 -78 16.5 -149.5t53.5 -128.5t94 -91 t139 -34q119 0 210 60.5t152.5 157.5t93.5 221t32 251q0 74 -16.5 144.5t-53.5 127t-95 91.5t-140 35q-121 0 -212.5 -62.5t-151.5 -161t-91 -220.5t-31 -241zM613 1569l331 319h203l221 -319h-182l-166 174l-227 -174h-180z" />
<glyph unicode="&#xd5;" horiz-adv-x="1411" d="M227 575q0 160 44 319t133.5 284t220.5 202.5t307 77.5q133 0 228 -51t156.5 -135t90.5 -190.5t29 -219.5q0 -164 -45 -322.5t-133.5 -284.5t-218.5 -203t-300 -77q-139 0 -236 50.5t-158.5 134.5t-89.5 191.5t-28 223.5zM436 575q0 -78 16.5 -149.5t53.5 -128.5t94 -91 t139 -34q119 0 210 60.5t152.5 157.5t93.5 221t32 251q0 74 -16.5 144.5t-53.5 127t-95 91.5t-140 35q-121 0 -212.5 -62.5t-151.5 -161t-91 -220.5t-31 -241zM635 1610q20 117 79.5 185.5t170.5 68.5q51 0 92 -15.5t76 -34t67.5 -34t69.5 -15.5t67.5 21.5t43.5 68.5h96 q-20 -117 -78.5 -185.5t-169.5 -68.5q-53 0 -93 15.5t-76 34t-68.5 34t-69.5 15.5t-67.5 -21.5t-41.5 -68.5h-98z" />
<glyph unicode="&#xd6;" horiz-adv-x="1411" d="M227 575q0 160 44 319t133.5 284t220.5 202.5t307 77.5q133 0 228 -51t156.5 -135t90.5 -190.5t29 -219.5q0 -164 -45 -322.5t-133.5 -284.5t-218.5 -203t-300 -77q-139 0 -236 50.5t-158.5 134.5t-89.5 191.5t-28 223.5zM436 575q0 -78 16.5 -149.5t53.5 -128.5t94 -91 t139 -34q119 0 210 60.5t152.5 157.5t93.5 221t32 251q0 74 -16.5 144.5t-53.5 127t-95 91.5t-140 35q-121 0 -212.5 -62.5t-151.5 -161t-91 -220.5t-31 -241zM723 1708q0 59 42 100t95 41q47 0 75 -29.5t28 -72.5q0 -59 -42.5 -101.5t-97.5 -42.5q-45 0 -72.5 31t-27.5 74z M1073 1708q0 59 43 100t96 41q47 0 75 -29.5t28 -72.5q0 -59 -43 -101.5t-96 -42.5q-47 0 -75 31t-28 74z" />
<glyph unicode="&#xd7;" d="M270 381l326 324l-324 321l144 141l321 -321l322 323l149 -147l-325 -322l323 -323l-143 -144l-322 324l-321 -326z" />
<glyph unicode="&#xd8;" horiz-adv-x="1411" d="M121 -25l186 228q-41 76 -60.5 176t-19.5 194q0 160 43 318t131 283.5t222.5 204.5t314.5 79q100 0 178 -28.5t133 -77.5l88 106h207l-190 -231q41 -74 61.5 -173.5t20.5 -191.5q0 -164 -44 -322.5t-132.5 -283.5t-220.5 -203t-308 -78q-104 0 -183 28t-138 75l-84 -103 h-205zM436 578q0 -43 5 -96.5t20 -92.5l653 799q-35 35 -83 53.5t-113 18.5q-121 0 -211.5 -62.5t-150.5 -161t-90 -219t-30 -239.5zM545 244q35 -35 82.5 -53.5t113.5 -18.5q119 0 210 60.5t152.5 157.5t92.5 219t31 247q0 43 -7.5 94t-19.5 90z" />
<glyph unicode="&#xd9;" horiz-adv-x="1359" d="M248 410q0 35 3 77.5t15 108.5l148 838h211l-152 -869q-8 -47 -11 -78.5t-3 -60.5q0 -74 21.5 -122t57 -77.5t83 -41t98.5 -11.5q63 0 121.5 16.5t106.5 57.5t85 112.5t55 180.5l158 893h209l-158 -906q-29 -158 -81 -264t-127.5 -170.5t-171.5 -91.5t-209 -27 q-96 0 -180.5 26t-146 79t-97 135t-35.5 195zM635 1888h270l223 -319h-194z" />
<glyph unicode="&#xda;" horiz-adv-x="1359" d="M248 410q0 35 3 77.5t15 108.5l148 838h211l-152 -869q-8 -47 -11 -78.5t-3 -60.5q0 -74 21.5 -122t57 -77.5t83 -41t98.5 -11.5q63 0 121.5 16.5t106.5 57.5t85 112.5t55 180.5l158 893h209l-158 -906q-29 -158 -81 -264t-127.5 -170.5t-171.5 -91.5t-209 -27 q-96 0 -180.5 26t-146 79t-97 135t-35.5 195zM797 1569l336 319h268l-409 -319h-195z" />
<glyph unicode="&#xdb;" horiz-adv-x="1359" d="M248 410q0 35 3 77.5t15 108.5l148 838h211l-152 -869q-8 -47 -11 -78.5t-3 -60.5q0 -74 21.5 -122t57 -77.5t83 -41t98.5 -11.5q63 0 121.5 16.5t106.5 57.5t85 112.5t55 180.5l158 893h209l-158 -906q-29 -158 -81 -264t-127.5 -170.5t-171.5 -91.5t-209 -27 q-96 0 -180.5 26t-146 79t-97 135t-35.5 195zM570 1569l331 319h203l221 -319h-182l-166 174l-227 -174h-180z" />
<glyph unicode="&#xdc;" horiz-adv-x="1359" d="M248 410q0 35 3 77.5t15 108.5l148 838h211l-152 -869q-8 -47 -11 -78.5t-3 -60.5q0 -74 21.5 -122t57 -77.5t83 -41t98.5 -11.5q63 0 121.5 16.5t106.5 57.5t85 112.5t55 180.5l158 893h209l-158 -906q-29 -158 -81 -264t-127.5 -170.5t-171.5 -91.5t-209 -27 q-96 0 -180.5 26t-146 79t-97 135t-35.5 195zM680 1708q0 59 42 100t95 41q47 0 75 -29.5t28 -72.5q0 -59 -42.5 -101.5t-97.5 -42.5q-45 0 -72.5 31t-27.5 74zM1030 1708q0 59 43 100t96 41q47 0 75 -29.5t28 -72.5q0 -59 -43 -101.5t-96 -42.5q-47 0 -75 31t-28 74z" />
<glyph unicode="&#xdd;" horiz-adv-x="1275" d="M309 1434h217l238 -662l473 662h231l-628 -869l-101 -565h-209l103 575zM768 1569l336 319h268l-409 -319h-195z" />
<glyph unicode="&#xde;" horiz-adv-x="1236" d="M170 0l252 1434h209l-45 -269h340q111 0 184.5 -33.5t118.5 -88t64.5 -121t19.5 -131.5q0 -92 -32 -181.5t-97.5 -160t-164.5 -114.5t-233 -44h-356l-51 -291h-209zM465 487h356q76 0 130.5 27t87 68t48 89t15.5 91q0 37 -9.5 74.5t-32 66.5t-60 47.5t-95.5 18.5h-354z " />
<glyph unicode="&#xdf;" horiz-adv-x="1091" d="M53 -414l246 1391q23 133 74 225t118.5 148.5t144.5 82t155 25.5t142 -22.5t110.5 -64.5t72 -101.5t25.5 -132.5q0 -111 -62.5 -209.5t-185.5 -143.5q98 -35 151.5 -116.5t53.5 -196.5q0 -111 -40 -202t-106.5 -156.5t-155.5 -101.5t-188 -36q-66 0 -111.5 11.5 t-74.5 27.5l115 154q37 -14 86 -14q47 0 95 19.5t87 58t63.5 97t24.5 134.5q0 43 -12.5 84t-40 72.5t-72.5 50t-109 18.5h-38l30 178h41q104 0 176 61.5t72 180.5q0 76 -44 123t-130 47q-92 0 -167 -70.5t-103 -232.5l-228 -1288z" />
<glyph unicode="&#xe0;" horiz-adv-x="1042" d="M133 279q0 98 36 171.5t97.5 123t143.5 74t172 24.5q80 0 141 -21.5t102 -48.5l13 66q10 51 10 77q0 82 -49 114t-115 32q-86 0 -174 -33t-156 -76l-28 170q74 45 171 82t214 37q51 0 109.5 -13.5t108.5 -48t82.5 -93t32.5 -146.5q0 -23 -3 -51.5t-9 -59.5l-114 -659 h-197l14 84q-45 -41 -119.5 -75t-169.5 -34q-139 0 -226 81t-87 223zM332 297q0 -61 42 -102t122 -41q86 0 155.5 36.5t116.5 83.5l29 158q-35 20 -90.5 42t-128.5 22q-47 0 -91.5 -11.5t-79 -35t-55 -61.5t-20.5 -91zM492 1499h270l223 -319h-194z" />
<glyph unicode="&#xe1;" horiz-adv-x="1042" d="M133 279q0 98 36 171.5t97.5 123t143.5 74t172 24.5q80 0 141 -21.5t102 -48.5l13 66q10 51 10 77q0 82 -49 114t-115 32q-86 0 -174 -33t-156 -76l-28 170q74 45 171 82t214 37q51 0 109.5 -13.5t108.5 -48t82.5 -93t32.5 -146.5q0 -23 -3 -51.5t-9 -59.5l-114 -659 h-197l14 84q-45 -41 -119.5 -75t-169.5 -34q-139 0 -226 81t-87 223zM332 297q0 -61 42 -102t122 -41q86 0 155.5 36.5t116.5 83.5l29 158q-35 20 -90.5 42t-128.5 22q-47 0 -91.5 -11.5t-79 -35t-55 -61.5t-20.5 -91zM606 1180l336 319h268l-409 -319h-195z" />
<glyph unicode="&#xe2;" horiz-adv-x="1042" d="M133 279q0 98 36 171.5t97.5 123t143.5 74t172 24.5q80 0 141 -21.5t102 -48.5l13 66q10 51 10 77q0 82 -49 114t-115 32q-86 0 -174 -33t-156 -76l-28 170q74 45 171 82t214 37q51 0 109.5 -13.5t108.5 -48t82.5 -93t32.5 -146.5q0 -23 -3 -51.5t-9 -59.5l-114 -659 h-197l14 84q-45 -41 -119.5 -75t-169.5 -34q-139 0 -226 81t-87 223zM332 297q0 -61 42 -102t122 -41q86 0 155.5 36.5t116.5 83.5l29 158q-35 20 -90.5 42t-128.5 22q-47 0 -91.5 -11.5t-79 -35t-55 -61.5t-20.5 -91zM365 1180l331 319h203l221 -319h-182l-166 174 l-227 -174h-180z" />
<glyph unicode="&#xe3;" horiz-adv-x="1042" d="M133 279q0 98 36 171.5t97.5 123t143.5 74t172 24.5q80 0 141 -21.5t102 -48.5l13 66q10 51 10 77q0 82 -49 114t-115 32q-86 0 -174 -33t-156 -76l-28 170q74 45 171 82t214 37q51 0 109.5 -13.5t108.5 -48t82.5 -93t32.5 -146.5q0 -23 -3 -51.5t-9 -59.5l-114 -659 h-197l14 84q-45 -41 -119.5 -75t-169.5 -34q-139 0 -226 81t-87 223zM332 297q0 -61 42 -102t122 -41q86 0 155.5 36.5t116.5 83.5l29 158q-35 20 -90.5 42t-128.5 22q-47 0 -91.5 -11.5t-79 -35t-55 -61.5t-20.5 -91zM371 1221q20 117 79.5 185.5t170.5 68.5q51 0 92 -15.5 t76 -34t67.5 -34t69.5 -15.5t67.5 21.5t43.5 68.5h96q-20 -117 -78.5 -185.5t-169.5 -68.5q-53 0 -93 15.5t-76 34t-68.5 34t-69.5 15.5t-67.5 -21.5t-41.5 -68.5h-98z" />
<glyph unicode="&#xe4;" horiz-adv-x="1042" d="M133 279q0 98 36 171.5t97.5 123t143.5 74t172 24.5q80 0 141 -21.5t102 -48.5l13 66q10 51 10 77q0 82 -49 114t-115 32q-86 0 -174 -33t-156 -76l-28 170q74 45 171 82t214 37q51 0 109.5 -13.5t108.5 -48t82.5 -93t32.5 -146.5q0 -23 -3 -51.5t-9 -59.5l-114 -659 h-197l14 84q-45 -41 -119.5 -75t-169.5 -34q-139 0 -226 81t-87 223zM332 297q0 -61 42 -102t122 -41q86 0 155.5 36.5t116.5 83.5l29 158q-35 20 -90.5 42t-128.5 22q-47 0 -91.5 -11.5t-79 -35t-55 -61.5t-20.5 -91zM483 1319q0 59 42 100t95 41q47 0 75 -29.5t28 -72.5 q0 -59 -42.5 -101.5t-97.5 -42.5q-45 0 -72.5 31t-27.5 74zM833 1319q0 59 43 100t96 41q47 0 75 -29.5t28 -72.5q0 -59 -43 -101.5t-96 -42.5q-47 0 -75 31t-28 74z" />
<glyph unicode="&#xe5;" horiz-adv-x="1042" d="M133 279q0 98 36 171.5t97.5 123t143.5 74t172 24.5q80 0 141 -21.5t102 -48.5l13 66q10 51 10 77q0 82 -49 114t-115 32q-86 0 -174 -33t-156 -76l-28 170q74 45 171 82t214 37q51 0 109.5 -13.5t108.5 -48t82.5 -93t32.5 -146.5q0 -23 -3 -51.5t-9 -59.5l-114 -659 h-197l14 84q-45 -41 -119.5 -75t-169.5 -34q-139 0 -226 81t-87 223zM332 297q0 -61 42 -102t122 -41q86 0 155.5 36.5t116.5 83.5l29 158q-35 20 -90.5 42t-128.5 22q-47 0 -91.5 -11.5t-79 -35t-55 -61.5t-20.5 -91zM551 1372q0 59 24.5 110.5t64.5 90.5t92.5 60.5 t107.5 21.5q86 0 142.5 -60.5t56.5 -146.5q0 -59 -25 -110.5t-65 -91t-92 -62t-105 -22.5q-43 0 -80 16t-63.5 46t-42 67.5t-15.5 80.5zM701 1393q0 -37 20 -61.5t55 -24.5q47 0 81 35t34 88q0 37 -21.5 59.5t-56.5 22.5q-43 0 -77.5 -33t-34.5 -86z" />
<glyph unicode="&#xe6;" horiz-adv-x="1654" d="M133 279q0 102 37 176.5t98.5 123t141 72t165.5 23.5q61 0 123 -17.5t109 -46.5l12 70q6 37 6 63q0 74 -42 111t-113 37q-84 0 -169 -31t-155 -78l-27 170q72 45 169.5 82t209.5 37q92 0 164 -43t107 -113q66 78 158 117t194 39q174 0 272.5 -100.5t98.5 -298.5 q0 -72 -12.5 -129.5t-26.5 -100.5h-674q-2 -10 -2 -14v-14q0 -123 59.5 -189.5t159.5 -66.5q53 0 115.5 22.5t122.5 73.5l98 -139q-72 -66 -162 -103t-201 -37q-119 0 -207 52.5t-128 148.5q-94 -111 -199 -156t-203 -45q-63 0 -117.5 20.5t-94.5 58.5t-63.5 94.5 t-23.5 130.5zM330 297q0 -61 41 -102t121 -41q78 0 143 38.5t113 88.5l26 153q-35 25 -88 43.5t-113 18.5q-49 0 -93 -11.5t-77.5 -35t-53 -61.5t-19.5 -91zM1006 618h483q6 39 6 78q-6 98 -60.5 145.5t-138.5 47.5q-98 0 -178 -64.5t-112 -206.5z" />
<glyph unicode="&#xe7;" horiz-adv-x="980" d="M164 406q0 147 39 270t110.5 210t170 136t218.5 49q135 0 222.5 -71.5t111.5 -192.5l-196 -68q-12 59 -51 99.5t-117 40.5q-76 0 -132.5 -37t-94 -99.5t-57 -144.5t-19.5 -172q0 -117 45 -187.5t135 -70.5q78 0 135 42t92 114l176 -64q-31 -72 -74.5 -124t-95 -86 t-106.5 -51t-107 -22l-63 -81q102 0 144 -44.5t42 -101.5q0 -104 -78.5 -171.5t-205.5 -67.5q-68 0 -112 20t-69 55l115 74q14 -29 70 -29q49 0 83.5 29t34.5 76q0 31 -27.5 53.5t-68.5 22.5q-47 0 -80 -19l-30 49l133 142q-137 23 -215 135t-78 287z" />
<glyph unicode="&#xe8;" horiz-adv-x="1040" d="M154 418q0 131 38.5 249.5t110.5 208t173.5 142.5t228.5 53q174 0 273 -100.5t99 -302.5q0 -63 -11 -118.5t-28 -107.5h-676v-24q0 -123 59.5 -191.5t158.5 -68.5q59 0 121.5 24.5t117.5 71.5l99 -139q-72 -66 -161 -103t-202 -37q-92 0 -167 32t-127 89.5t-79.5 139 t-27.5 182.5zM391 618h483q6 47 5 76q-4 55 -20.5 92t-43.5 60.5t-60.5 33t-70.5 9.5q-59 0 -107.5 -20.5t-85 -57.5t-62.5 -86t-38 -107zM432 1499h270l223 -319h-194z" />
<glyph unicode="&#xe9;" horiz-adv-x="1040" d="M154 418q0 131 38.5 249.5t110.5 208t173.5 142.5t228.5 53q174 0 273 -100.5t99 -302.5q0 -63 -11 -118.5t-28 -107.5h-676v-24q0 -123 59.5 -191.5t158.5 -68.5q59 0 121.5 24.5t117.5 71.5l99 -139q-72 -66 -161 -103t-202 -37q-92 0 -167 32t-127 89.5t-79.5 139 t-27.5 182.5zM391 618h483q6 47 5 76q-4 55 -20.5 92t-43.5 60.5t-60.5 33t-70.5 9.5q-59 0 -107.5 -20.5t-85 -57.5t-62.5 -86t-38 -107zM588 1180l336 319h268l-409 -319h-195z" />
<glyph unicode="&#xea;" horiz-adv-x="1040" d="M154 418q0 131 38.5 249.5t110.5 208t173.5 142.5t228.5 53q174 0 273 -100.5t99 -302.5q0 -63 -11 -118.5t-28 -107.5h-676v-24q0 -123 59.5 -191.5t158.5 -68.5q59 0 121.5 24.5t117.5 71.5l99 -139q-72 -66 -161 -103t-202 -37q-92 0 -167 32t-127 89.5t-79.5 139 t-27.5 182.5zM375 1180l331 319h203l221 -319h-182l-166 174l-227 -174h-180zM391 618h483q6 47 5 76q-4 55 -20.5 92t-43.5 60.5t-60.5 33t-70.5 9.5q-59 0 -107.5 -20.5t-85 -57.5t-62.5 -86t-38 -107z" />
<glyph unicode="&#xeb;" horiz-adv-x="1040" d="M154 418q0 131 38.5 249.5t110.5 208t173.5 142.5t228.5 53q174 0 273 -100.5t99 -302.5q0 -63 -11 -118.5t-28 -107.5h-676v-24q0 -123 59.5 -191.5t158.5 -68.5q59 0 121.5 24.5t117.5 71.5l99 -139q-72 -66 -161 -103t-202 -37q-92 0 -167 32t-127 89.5t-79.5 139 t-27.5 182.5zM391 618h483q6 47 5 76q-4 55 -20.5 92t-43.5 60.5t-60.5 33t-70.5 9.5q-59 0 -107.5 -20.5t-85 -57.5t-62.5 -86t-38 -107zM475 1319q0 59 42 100t95 41q47 0 75 -29.5t28 -72.5q0 -59 -42.5 -101.5t-97.5 -42.5q-45 0 -72.5 31t-27.5 74zM825 1319 q0 59 43 100t96 41q47 0 75 -29.5t28 -72.5q0 -59 -43 -101.5t-96 -42.5q-47 0 -75 31t-28 74z" />
<glyph unicode="&#xec;" horiz-adv-x="493" d="M121 1499h270l223 -319h-194zM145 0l185 1047h200l-184 -1047h-201z" />
<glyph unicode="&#xed;" horiz-adv-x="493" d="M145 0l185 1047h200l-184 -1047h-201zM277 1180l336 319h268l-409 -319h-195z" />
<glyph unicode="&#xee;" horiz-adv-x="493" d="M66 1180l331 319h203l221 -319h-182l-166 174l-227 -174h-180zM145 0l185 1047h200l-184 -1047h-201z" />
<glyph unicode="&#xef;" horiz-adv-x="493" d="M145 0l185 1047h200l-184 -1047h-201zM176 1319q0 59 42 100t95 41q47 0 75 -29.5t28 -72.5q0 -59 -42.5 -101.5t-97.5 -42.5q-45 0 -72.5 31t-27.5 74zM526 1319q0 59 43 100t96 41q47 0 75 -29.5t28 -72.5q0 -59 -43 -101.5t-96 -42.5q-47 0 -75 31t-28 74z" />
<glyph unicode="&#xf0;" horiz-adv-x="1069" d="M156 383q0 117 41 218t110.5 175t163.5 116t201 42q94 0 150.5 -36t84.5 -85q-4 96 -30.5 189.5t-90.5 156.5l-147 -135l-84 104l121 113q-90 47 -205 53l31 164q86 -4 168 -24.5t149 -61.5l135 125l86 -104l-116 -107q84 -90 130 -230.5t46 -328.5q0 -168 -37 -306 t-108.5 -237.5t-176 -154t-239.5 -54.5q-90 0 -161 30t-120 84t-75.5 129t-26.5 165zM362 399q0 -106 53.5 -168.5t149.5 -62.5q57 0 111.5 25.5t96.5 70.5t67.5 107.5t25.5 134.5q0 104 -53 169.5t-149 65.5q-59 0 -113.5 -25.5t-96.5 -70.5t-67 -108.5t-25 -137.5z" />
<glyph unicode="&#xf1;" horiz-adv-x="1101" d="M145 0l185 1047h202l-18 -111q49 61 120 98t148 37q150 0 226.5 -89t76.5 -243q0 -70 -16 -151l-104 -588h-203l106 604q10 51 11 98q0 86 -41 132.5t-121 46.5q-43 0 -85 -17.5t-78 -51.5t-61.5 -82t-35.5 -112l-109 -618h-203zM403 1221q20 117 79.5 185.5t170.5 68.5 q51 0 92 -15.5t76 -34t67.5 -34t69.5 -15.5t67.5 21.5t43.5 68.5h96q-20 -117 -78.5 -185.5t-169.5 -68.5q-53 0 -93 15.5t-76 34t-68.5 34t-69.5 15.5t-67.5 -21.5t-41.5 -68.5h-98z" />
<glyph unicode="&#xf2;" horiz-adv-x="1069" d="M162 418q0 125 37 243.5t105.5 209t169.5 145.5t231 55q96 0 168.5 -35t120.5 -94t72 -139t24 -168q0 -129 -36 -248t-104.5 -211t-168 -146.5t-226.5 -54.5q-102 0 -176 33t-122 91.5t-71.5 140.5t-23.5 178zM365 436q0 -117 48 -192.5t152 -75.5q76 0 136.5 38 t101.5 101.5t62.5 142t21.5 162.5q0 55 -11.5 103.5t-36 85.5t-63.5 57.5t-92 20.5q-76 0 -135.5 -39t-100 -101.5t-62 -141.5t-21.5 -161zM426 1499h270l223 -319h-194z" />
<glyph unicode="&#xf3;" horiz-adv-x="1069" d="M162 418q0 125 37 243.5t105.5 209t169.5 145.5t231 55q96 0 168.5 -35t120.5 -94t72 -139t24 -168q0 -129 -36 -248t-104.5 -211t-168 -146.5t-226.5 -54.5q-102 0 -176 33t-122 91.5t-71.5 140.5t-23.5 178zM365 436q0 -117 48 -192.5t152 -75.5q76 0 136.5 38 t101.5 101.5t62.5 142t21.5 162.5q0 55 -11.5 103.5t-36 85.5t-63.5 57.5t-92 20.5q-76 0 -135.5 -39t-100 -101.5t-62 -141.5t-21.5 -161zM600 1180l336 319h268l-409 -319h-195z" />
<glyph unicode="&#xf4;" horiz-adv-x="1069" d="M162 418q0 125 37 243.5t105.5 209t169.5 145.5t231 55q96 0 168.5 -35t120.5 -94t72 -139t24 -168q0 -129 -36 -248t-104.5 -211t-168 -146.5t-226.5 -54.5q-102 0 -176 33t-122 91.5t-71.5 140.5t-23.5 178zM365 436q0 -117 48 -192.5t152 -75.5q76 0 136.5 38 t101.5 101.5t62.5 142t21.5 162.5q0 55 -11.5 103.5t-36 85.5t-63.5 57.5t-92 20.5q-76 0 -135.5 -39t-100 -101.5t-62 -141.5t-21.5 -161zM367 1180l331 319h203l221 -319h-182l-166 174l-227 -174h-180z" />
<glyph unicode="&#xf5;" horiz-adv-x="1069" d="M162 418q0 125 37 243.5t105.5 209t169.5 145.5t231 55q96 0 168.5 -35t120.5 -94t72 -139t24 -168q0 -129 -36 -248t-104.5 -211t-168 -146.5t-226.5 -54.5q-102 0 -176 33t-122 91.5t-71.5 140.5t-23.5 178zM365 436q0 -117 48 -192.5t152 -75.5q76 0 136.5 38 t101.5 101.5t62.5 142t21.5 162.5q0 55 -11.5 103.5t-36 85.5t-63.5 57.5t-92 20.5q-76 0 -135.5 -39t-100 -101.5t-62 -141.5t-21.5 -161zM389 1221q20 117 79.5 185.5t170.5 68.5q51 0 92 -15.5t76 -34t67.5 -34t69.5 -15.5t67.5 21.5t43.5 68.5h96q-20 -117 -78.5 -185.5 t-169.5 -68.5q-53 0 -93 15.5t-76 34t-68.5 34t-69.5 15.5t-67.5 -21.5t-41.5 -68.5h-98z" />
<glyph unicode="&#xf6;" horiz-adv-x="1069" d="M162 418q0 125 37 243.5t105.5 209t169.5 145.5t231 55q96 0 168.5 -35t120.5 -94t72 -139t24 -168q0 -129 -36 -248t-104.5 -211t-168 -146.5t-226.5 -54.5q-102 0 -176 33t-122 91.5t-71.5 140.5t-23.5 178zM365 436q0 -117 48 -192.5t152 -75.5q76 0 136.5 38 t101.5 101.5t62.5 142t21.5 162.5q0 55 -11.5 103.5t-36 85.5t-63.5 57.5t-92 20.5q-76 0 -135.5 -39t-100 -101.5t-62 -141.5t-21.5 -161zM477 1319q0 59 42 100t95 41q47 0 75 -29.5t28 -72.5q0 -59 -42.5 -101.5t-97.5 -42.5q-45 0 -72.5 31t-27.5 74zM827 1319 q0 59 43 100t96 41q47 0 75 -29.5t28 -72.5q0 -59 -43 -101.5t-96 -42.5q-47 0 -75 31t-28 74z" />
<glyph unicode="&#xf7;" d="M266 602v199h938v-199h-938zM604 305q0 53 37 90t92 37t93 -37t38 -90t-38 -89t-93 -36t-92 36t-37 89zM604 1096q0 53 37 91t92 38t93 -38t38 -91t-38 -90t-93 -37t-92 36.5t-37 90.5z" />
<glyph unicode="&#xf8;" horiz-adv-x="1069" d="M82 -25l143 170q-63 109 -63 273q0 125 37 243.5t105.5 209t169.5 145.5t231 55q70 0 126 -19.5t99 -52.5l59 72h180l-145 -176q66 -113 66 -260q0 -129 -36 -248t-104.5 -211t-168 -146.5t-226.5 -54.5q-74 0 -132 17.5t-104 50.5l-57 -68h-180zM365 436q0 -55 12 -104 l422 506q-47 41 -115 41q-76 0 -135.5 -39t-100 -101.5t-62 -141.5t-21.5 -161zM455 207q42 -39 110 -39q76 0 136.5 38t101.5 101.5t62.5 142t21.5 162.5q0 25 -3 50.5t-12 48.5z" />
<glyph unicode="&#xf9;" horiz-adv-x="1101" d="M193 299q0 29 4 60.5t8 66.5l108 621h205l-108 -609q-6 -35 -8.5 -57.5t-2.5 -38.5q0 -92 45 -133t117 -41q45 0 89 12.5t80 42t62.5 76.5t38.5 117l111 631h203l-184 -1047h-203l18 98q-104 -123 -287 -123q-63 0 -117.5 19.5t-94 59.5t-62 101.5t-22.5 143.5zM461 1499 h270l223 -319h-194z" />
<glyph unicode="&#xfa;" horiz-adv-x="1101" d="M193 299q0 29 4 60.5t8 66.5l108 621h205l-108 -609q-6 -35 -8.5 -57.5t-2.5 -38.5q0 -92 45 -133t117 -41q45 0 89 12.5t80 42t62.5 76.5t38.5 117l111 631h203l-184 -1047h-203l18 98q-104 -123 -287 -123q-63 0 -117.5 19.5t-94 59.5t-62 101.5t-22.5 143.5zM596 1180 l336 319h268l-409 -319h-195z" />
<glyph unicode="&#xfb;" horiz-adv-x="1101" d="M193 299q0 29 4 60.5t8 66.5l108 621h205l-108 -609q-6 -35 -8.5 -57.5t-2.5 -38.5q0 -92 45 -133t117 -41q45 0 89 12.5t80 42t62.5 76.5t38.5 117l111 631h203l-184 -1047h-203l18 98q-104 -123 -287 -123q-63 0 -117.5 19.5t-94 59.5t-62 101.5t-22.5 143.5zM367 1180 l331 319h203l221 -319h-182l-166 174l-227 -174h-180z" />
<glyph unicode="&#xfc;" horiz-adv-x="1101" d="M193 299q0 29 4 60.5t8 66.5l108 621h205l-108 -609q-6 -35 -8.5 -57.5t-2.5 -38.5q0 -92 45 -133t117 -41q45 0 89 12.5t80 42t62.5 76.5t38.5 117l111 631h203l-184 -1047h-203l18 98q-104 -123 -287 -123q-63 0 -117.5 19.5t-94 59.5t-62 101.5t-22.5 143.5zM475 1319 q0 59 42 100t95 41q47 0 75 -29.5t28 -72.5q0 -59 -42.5 -101.5t-97.5 -42.5q-45 0 -72.5 31t-27.5 74zM825 1319q0 59 43 100t96 41q47 0 75 -29.5t28 -72.5q0 -59 -43 -101.5t-96 -42.5q-47 0 -75 31t-28 74z" />
<glyph unicode="&#xfd;" horiz-adv-x="1032" d="M190 -397l226 424l-193 1020h205l117 -682q4 -27 8 -51.5t6 -34.5q4 12 17.5 37.5t25.5 48.5l363 682h219l-776 -1444h-218zM592 1180l336 319h268l-409 -319h-195z" />
<glyph unicode="&#xfe;" horiz-adv-x="1093" d="M74 -414l317 1803l215 79l-92 -512q51 47 113.5 81t154.5 34q74 0 135.5 -30.5t105.5 -86t67.5 -134.5t23.5 -177q0 -160 -42 -283.5t-113.5 -208.5t-165 -130.5t-197.5 -45.5q-92 0 -145.5 32t-88.5 83l-73 -424zM397 291q29 -49 74 -86t123 -37q74 0 132 32.5t100 92 t63.5 142.5t21.5 183q0 117 -49 189t-147 72q-66 0 -131.5 -35t-106.5 -94z" />
<glyph unicode="&#xff;" horiz-adv-x="1032" d="M190 -397l226 424l-193 1020h205l117 -682q4 -27 8 -51.5t6 -34.5q4 12 17.5 37.5t25.5 48.5l363 682h219l-776 -1444h-218zM457 1319q0 59 42 100t95 41q47 0 75 -29.5t28 -72.5q0 -59 -42.5 -101.5t-97.5 -42.5q-45 0 -72.5 31t-27.5 74zM807 1319q0 59 43 100t96 41 q47 0 75 -29.5t28 -72.5q0 -59 -43 -101.5t-96 -42.5q-47 0 -75 31t-28 74z" />
<glyph unicode="&#x152;" horiz-adv-x="1802" d="M227 559q0 100 18.5 205.5t55.5 205t95.5 188.5t138 155.5t182 105.5t229.5 39q51 0 93 -7t79 -17h791l-33 -201h-565l-70 -393h340l-37 -199h-340l-76 -442h607l-35 -199h-795q-86 -25 -188 -25q-139 0 -232.5 52.5t-151 135.5t-82 187.5t-24.5 208.5zM440 580 q0 -78 16.5 -151t52.5 -130t94 -92t142 -35q49 0 94.5 12.5t86.5 34.5l174 983q-76 57 -182 58q-121 0 -210.5 -62.5t-148.5 -161t-89 -219.5t-30 -237z" />
<glyph unicode="&#x153;" horiz-adv-x="1734" d="M162 414q0 127 37 245.5t106.5 210t169.5 146.5t225 55q121 0 200 -48t124 -128q70 82 162 129t203 47q174 0 279.5 -98.5t105.5 -294.5q0 -66 -10.5 -125t-26.5 -111h-676v-24q0 -123 59.5 -191.5t157.5 -68.5q59 0 121.5 24.5t118.5 71.5l96 -135q-72 -66 -163 -105 t-208 -39q-106 0 -186 47.5t-127 131.5q-70 -82 -165 -130.5t-216 -48.5q-98 0 -172 33t-121 91.5t-70.5 138t-23.5 176.5zM365 436q0 -117 47 -192.5t149 -75.5q78 0 138.5 38t102.5 101.5t63.5 142t21.5 162.5q0 55 -11.5 103.5t-35 85.5t-60.5 57.5t-88 20.5 q-80 0 -140 -39t-102 -101.5t-63.5 -141.5t-21.5 -161zM1090 618h483q6 51 4 80q-4 55 -21.5 91t-44 58.5t-60.5 32t-69 9.5q-59 0 -107 -20.5t-85 -57.5t-62.5 -86t-37.5 -107z" />
<glyph unicode="&#x178;" horiz-adv-x="1275" d="M309 1434h217l238 -662l473 662h231l-628 -869l-101 -565h-209l103 575zM637 1708q0 59 42 100t95 41q47 0 75 -29.5t28 -72.5q0 -59 -42.5 -101.5t-97.5 -42.5q-45 0 -72.5 31t-27.5 74zM987 1708q0 59 43 100t96 41q47 0 75 -29.5t28 -72.5q0 -59 -43 -101.5t-96 -42.5 q-47 0 -75 31t-28 74z" />
<glyph unicode="&#x2c6;" horiz-adv-x="765" d="M283 1180l331 319h203l221 -319h-182l-166 174l-227 -174h-180z" />
<glyph unicode="&#x2dc;" horiz-adv-x="765" d="M301 1221q20 117 79.5 185.5t170.5 68.5q51 0 92 -15.5t76 -34t67.5 -34t69.5 -15.5t67.5 21.5t43.5 68.5h96q-20 -117 -78.5 -185.5t-169.5 -68.5q-53 0 -93 15.5t-76 34t-68.5 34t-69.5 15.5t-67.5 -21.5t-41.5 -68.5h-98z" />
<glyph unicode="&#x2000;" horiz-adv-x="944" />
<glyph unicode="&#x2001;" horiz-adv-x="1888" />
<glyph unicode="&#x2002;" horiz-adv-x="944" />
<glyph unicode="&#x2003;" horiz-adv-x="1888" />
<glyph unicode="&#x2004;" horiz-adv-x="629" />
<glyph unicode="&#x2005;" horiz-adv-x="472" />
<glyph unicode="&#x2006;" horiz-adv-x="314" />
<glyph unicode="&#x2007;" horiz-adv-x="314" />
<glyph unicode="&#x2008;" horiz-adv-x="236" />
<glyph unicode="&#x2009;" horiz-adv-x="377" />
<glyph unicode="&#x200a;" horiz-adv-x="104" />
<glyph unicode="&#x2010;" horiz-adv-x="772" d="M238 508l34 199h478l-35 -199h-477z" />
<glyph unicode="&#x2011;" horiz-adv-x="772" d="M238 508l34 199h478l-35 -199h-477z" />
<glyph unicode="&#x2012;" horiz-adv-x="772" d="M238 508l34 199h478l-35 -199h-477z" />
<glyph unicode="&#x2013;" horiz-adv-x="972" d="M186 498l31 178h776l-30 -178h-777z" />
<glyph unicode="&#x2014;" horiz-adv-x="1130" d="M78 498l31 178h1151l-31 -178h-1151z" />
<glyph unicode="&#x2018;" horiz-adv-x="434" d="M248 1044q0 63 23.5 124t61.5 114t89 98t106 78l64 -47q-16 -12 -38 -33.5t-43.5 -50.5t-40.5 -62.5t-30 -68.5q47 -6 77 -39t30 -80q0 -78 -51.5 -127t-118.5 -49q-53 0 -91 36t-38 107z" />
<glyph unicode="&#x2019;" horiz-adv-x="434" d="M258 948q14 12 36.5 34t44 50.5t41 61t30.5 67.5q-47 8 -76 40t-29 81q0 78 51.5 127t118.5 49q51 0 89 -37t38 -108q0 -63 -22.5 -123t-61.5 -114t-90 -98t-106 -77z" />
<glyph unicode="&#x201a;" horiz-adv-x="434" d="M49 -242q14 12 37 34t44.5 50.5t40.5 62.5t30 68q-47 6 -77 39t-30 80q0 80 50.5 128t113.5 48q57 0 95 -36.5t38 -108.5q0 -63 -22.5 -122.5t-61.5 -114t-89 -98.5t-105 -77z" />
<glyph unicode="&#x201c;" horiz-adv-x="862" d="M248 1044q0 63 23.5 124t61.5 114t89 98t106 78l64 -47q-16 -12 -38 -33.5t-43.5 -50.5t-40.5 -62.5t-30 -68.5q47 -6 77 -39t30 -80q0 -78 -51.5 -127t-118.5 -49q-53 0 -91 36t-38 107zM676 1047q0 61 23.5 121.5t61.5 113.5t89 98t106 78l64 -47q-16 -12 -37.5 -33.5 t-43 -50.5t-40 -62.5t-29.5 -68.5q47 -6 76 -39t29 -80q0 -41 -14.5 -72.5t-39 -55t-55 -36t-63.5 -12.5q-53 0 -90 37t-37 109z" />
<glyph unicode="&#x201d;" horiz-adv-x="862" d="M258 948q14 12 36.5 34t44 50.5t41 61t30.5 67.5q-47 8 -76 40t-29 81q0 78 51.5 127t118.5 49q51 0 89 -37t38 -108q0 -63 -22.5 -123t-61.5 -114t-90 -98t-106 -77zM686 948q14 12 36.5 34t44 50.5t41 61t30.5 67.5q-47 8 -76 40t-29 81q0 78 51.5 127t118.5 49 q51 0 89 -37t38 -108q0 -63 -22.5 -123t-61.5 -114t-90 -98t-106 -77z" />
<glyph unicode="&#x201e;" horiz-adv-x="862" d="M49 -242q14 12 37 34t44.5 50.5t40.5 62.5t30 68q-47 6 -77 39t-30 80q0 80 50.5 128t113.5 48q57 0 95 -36.5t38 -108.5q0 -63 -22.5 -122.5t-61.5 -114t-89 -98.5t-105 -77zM475 -242q14 12 37 34t44.5 50.5t40.5 62.5t30 68q-47 6 -76 39t-29 80q0 80 50.5 128 t111.5 48q57 0 96 -36.5t39 -108.5q0 -63 -22.5 -122.5t-61.5 -114t-90 -98.5t-106 -77z" />
<glyph unicode="&#x2022;" horiz-adv-x="792" d="M240 674q0 66 26.5 125t71.5 103t105.5 69.5t125.5 25.5q53 0 97.5 -19.5t75 -51t48 -74.5t17.5 -92q0 -68 -27.5 -126.5t-74 -102.5t-106.5 -68.5t-126 -24.5q-104 0 -168.5 68.5t-64.5 167.5z" />
<glyph unicode="&#x2026;" horiz-adv-x="1804" d="M190 80q0 59 45.5 102t102.5 43q47 0 76.5 -31.5t29.5 -76.5q0 -59 -45 -100.5t-104 -41.5q-47 0 -76 31t-29 74zM793 80q0 59 44 102t103 43q47 0 77 -31.5t30 -76.5q0 -59 -45.5 -100.5t-104.5 -41.5q-47 0 -75.5 31t-28.5 74zM1395 80q0 59 45 102t102 43 q47 0 77 -31.5t30 -76.5q0 -59 -45.5 -100.5t-104.5 -41.5q-47 0 -75.5 31t-28.5 74z" />
<glyph unicode="&#x202f;" horiz-adv-x="377" />
<glyph unicode="&#x2039;" horiz-adv-x="602" d="M152 524l391 523h219l-395 -527l202 -520h-211z" />
<glyph unicode="&#x203a;" horiz-adv-x="602" d="M27 0l395 528l-205 519h211l207 -523l-391 -524h-217z" />
<glyph unicode="&#x205f;" horiz-adv-x="472" />
<glyph unicode="&#x20ac;" horiz-adv-x="1265" d="M145 459l97 157h73q4 41 10.5 82t16.5 88h-137l96 160h88q35 98 89 191.5t129 164t172.5 113.5t217.5 43q92 0 174 -27.5t156 -89.5l-104 -184q-45 47 -107.5 77t-144.5 30q-70 0 -126.5 -26t-101.5 -70t-79.5 -101t-59.5 -121h498l-92 -160h-459q-20 -82 -31 -170h393 l-90 -159l-305 2q2 -61 14.5 -114.5t39 -91.5t69.5 -60.5t107 -22.5q82 0 151.5 39t128.5 106l139 -100q-76 -104 -184.5 -172t-249.5 -68q-209 0 -311.5 126t-112.5 358h-164z" />
<glyph unicode="&#x2122;" horiz-adv-x="1572" d="M139 1288v146h606v-146h-223v-719h-157v719h-226zM813 569v865h168l205 -484l18 -51l19 51l204 484h166v-865h-155v527l-19 -56l-213 -495l-215 495l-20 62v-533h-158z" />
<glyph unicode="&#x25fc;" horiz-adv-x="1044" d="M0 0v1044h1044v-1044h-1044z" />
</font>
</defs>
</svg>
