<?xml version="1.0" standalone="no"?>
<!DOCTYPE svg PUBLIC "-//W3C//DTD SVG 1.1//EN" "http://www.w3.org/Graphics/SVG/1.1/DTD/svg11.dtd" >
<svg xmlns="http://www.w3.org/2000/svg">
<metadata></metadata>
<defs>
<font id="overpasslight" horiz-adv-x="1351" >
<font-face units-per-em="2048" ascent="1536" descent="-512" />
<missing-glyph horiz-adv-x="471" />
<glyph unicode="&#xfb01;" horiz-adv-x="1200" d="M51 918v129h168v178q0 63 18.5 108t49.5 73t70 40t79 12q59 0 101.5 -15.5t77.5 -33.5v-125q-33 16 -69 28.5t-81 12.5q-37 0 -58.5 -11t-30.5 -28.5t-11 -40t-2 -43.5v-155h252v-129h-252v-918h-144v918h-168zM848 1356q0 41 26.5 69.5t67.5 28.5t67.5 -28.5t26.5 -69.5 t-26.5 -67.5t-67.5 -26.5t-67.5 26.5t-26.5 67.5zM870 0v1047h144v-1047h-144z" />
<glyph unicode="&#xfb02;" horiz-adv-x="1208" d="M51 918v129h168v178q0 63 18.5 108t49.5 73t70 40t79 12q59 0 101.5 -15.5t77.5 -33.5v-125q-33 16 -69 28.5t-81 12.5q-37 0 -58.5 -11t-30.5 -28.5t-11 -40t-2 -43.5v-155h252v-129h-252v-918h-144v918h-168zM871 0v1409l143 70v-1479h-143z" />
<glyph horiz-adv-x="0" />
<glyph horiz-adv-x="682" />
<glyph unicode=" "  horiz-adv-x="471" />
<glyph unicode="&#x09;" horiz-adv-x="471" />
<glyph unicode="&#xa0;" horiz-adv-x="471" />
<glyph unicode="!" horiz-adv-x="552" d="M147 100q0 49 37 89t92 40t92.5 -39.5t37.5 -89.5q0 -49 -37.5 -89t-92.5 -40t-92 40t-37 89zM207 1014v444h147v-444l-63 -619h-23z" />
<glyph unicode="&#x22;" horiz-adv-x="788" d="M123 1434h178l-37 -547h-108zM485 1434h181l-37 -547h-109z" />
<glyph unicode="#" horiz-adv-x="1402" d="M117 418l24 129h246l55 364h-235l20 125h234l61 398h140l-60 -398h291l61 398h140l-62 -398h254l-20 -125h-252l-58 -364h240l-20 -129h-238l-64 -418h-139l64 418h-291l-64 -418h-139l64 418h-252zM526 547h291l57 364h-290z" />
<glyph unicode="$" horiz-adv-x="1212" d="M133 266l135 49q43 -94 132 -150t212 -56q141 0 221 65.5t80 194.5q0 63 -26.5 115.5t-71.5 92t-102.5 70.5t-120.5 55q-76 29 -150.5 65t-135 85t-97.5 115.5t-37 156.5q0 61 23.5 117.5t69.5 100.5t112.5 74t152.5 38v162h146v-164q125 -16 208 -75.5t109 -145.5 l-133 -45q-27 57 -95.5 98t-176.5 41q-127 0 -196.5 -53t-69.5 -146q0 -55 27.5 -98t72.5 -76.5t104.5 -60.5t122.5 -51q74 -29 147.5 -67t133 -93t96.5 -130t37 -177q0 -88 -28.5 -158t-79 -119t-122 -78.5t-157.5 -37.5v-181h-146v183q-152 18 -255 99t-142 185z" />
<glyph unicode="%" horiz-adv-x="1820" d="M121 1094q0 57 16.5 121.5t55 117.5t99 89t150.5 36q88 0 149.5 -32.5t99.5 -85t55.5 -117t17.5 -129.5q0 -59 -16.5 -124t-54.5 -118t-99.5 -88t-151.5 -35q-88 0 -149.5 33t-99 85t-55 116.5t-17.5 130.5zM254 1094q0 -106 45 -176t143 -70q47 0 83 19.5t59.5 53 t35 78.5t11.5 95q0 111 -47 178t-142 67q-49 0 -84.5 -19.5t-58.5 -53t-34 -78.5t-11 -94zM346 -25l979 1483h148l-979 -1483h-148zM1055 340q0 57 16 121.5t55 118t99.5 89.5t150.5 36q88 0 149.5 -33t99.5 -85t55.5 -116.5t17.5 -130.5q0 -59 -16.5 -123.5t-54.5 -118 t-99.5 -88.5t-151.5 -35q-88 0 -149.5 33t-99 85t-55 116.5t-17.5 130.5zM1188 340q0 -106 45 -176t143 -70q47 0 83 19.5t59.5 53.5t35 79t11.5 94q0 111 -47.5 178.5t-141.5 67.5q-49 0 -85 -19.5t-58.5 -53.5t-33.5 -79t-11 -94z" />
<glyph unicode="&#x26;" horiz-adv-x="1337" d="M96 360q0 78 24.5 140.5t71 117t108.5 100.5t140 89q-47 57 -80.5 104t-56 88t-33 79t-10.5 79q0 70 26.5 126t71.5 95t106.5 59.5t133.5 20.5q70 0 129 -22.5t102 -63.5t68 -96t25 -123q0 -115 -76 -202t-207 -167l311 -372q35 72 52.5 137t21.5 104h135 q-6 -72 -29.5 -161t-85.5 -191l252 -301h-178l-157 186q-96 -104 -219.5 -157.5t-245.5 -53.5q-90 0 -164 28t-126 78t-81 120.5t-29 158.5zM231 373q0 -123 82 -196t211 -73q88 0 180.5 49.5t165.5 139.5l-352 420q-141 -86 -214 -164t-73 -176zM395 1155q0 -55 44 -119.5 t124 -161.5q223 131 223 265q0 90 -57 141t-139 51q-88 0 -141.5 -48t-53.5 -128z" />
<glyph unicode="'" horiz-adv-x="423" d="M123 1434h178l-37 -547h-108z" />
<glyph unicode="(" horiz-adv-x="696" d="M174 582q0 162 23.5 297t61.5 242.5t87 191.5t100 145h138q-27 -33 -72 -109.5t-89 -189t-76 -259t-32 -318.5q0 -176 30 -317.5t71 -249t82 -178t63 -103.5h-137q-47 61 -92 140t-80 182.5t-56.5 232.5t-21.5 293z" />
<glyph unicode=")" horiz-adv-x="696" d="M113 1458h137q51 -61 100 -145t87 -191.5t61.5 -243t23.5 -296.5q0 -164 -21.5 -293t-56 -232.5t-80 -182.5t-92.5 -140h-137q23 33 64 103.5t82 178t70.5 249t29.5 317.5q0 172 -32 318.5t-76 259t-89 189t-71 109.5z" />
<glyph unicode="*" horiz-adv-x="1095" d="M119 1079l47 135l199 -65l145 -100l-33 170v229h141v-229l-36 -170l145 100l203 65l47 -135l-213 -69l-158 -11l127 -114l129 -180l-112 -89l-140 189l-65 164l-64 -164l-135 -189l-115 89l131 180l119 114l-153 11z" />
<glyph unicode="+" d="M195 631v139h405v414h148v-414h409v-139h-409v-410h-148v410h-405z" />
<glyph unicode="," horiz-adv-x="462" d="M102 88q0 63 37 99t88 36q27 0 53.5 -10t47 -30.5t34 -53.5t13.5 -78q0 -117 -53.5 -204t-133.5 -136l-38 10q14 12 31.5 34t32.5 52.5t26.5 69.5t11.5 84q-66 0 -108 36t-42 91z" />
<glyph unicode="-" horiz-adv-x="825" d="M184 541v139h457v-139h-457z" />
<glyph unicode="." horiz-adv-x="462" d="M102 100q0 49 37 89t92 40t92 -39.5t37 -89.5q0 -49 -37 -89t-92 -40t-92 40t-37 89z" />
<glyph unicode="/" horiz-adv-x="995" d="M0 -266l805 1724h139l-805 -1724h-139z" />
<glyph unicode="0" horiz-adv-x="1269" d="M143 717q0 74 8.5 159t30 166.5t57 157.5t91 133.5t130.5 91t175 33.5q141 0 235.5 -66.5t150.5 -173t80.5 -238.5t24.5 -263q0 -76 -9 -160t-30.5 -167t-57.5 -157.5t-91 -132t-130 -91.5t-173 -34q-141 0 -235.5 65.5t-150.5 171t-81 238t-25 267.5zM293 717 q0 -113 14.5 -222.5t53 -196.5t105.5 -140.5t169 -53.5q106 0 172.5 58.5t103.5 148.5t49.5 198.5t12.5 207.5q0 111 -14.5 220.5t-53.5 196.5t-104.5 141t-165.5 54q-109 0 -175.5 -59.5t-103.5 -149.5t-50 -197.5t-13 -205.5z" />
<glyph unicode="1" horiz-adv-x="684" d="M82 1174v81q109 0 184.5 38t110.5 141h92v-1434h-143v1174h-244z" />
<glyph unicode="2" horiz-adv-x="1228" d="M145 0q0 135 39 232.5t100.5 171t139.5 129t156 108.5q68 45 129 89t109 93t77 105.5t29 126.5q0 117 -81 195.5t-231 78.5q-145 0 -219 -64.5t-100 -166.5l-127 57q16 63 55 118.5t98.5 96.5t136 64.5t169.5 23.5q213 0 330.5 -109.5t117.5 -293.5q0 -98 -38 -174 t-98 -138.5t-136 -115t-154 -101.5q-61 -41 -118.5 -80.5t-105.5 -86t-81 -100.5t-45 -122h788v-137h-940z" />
<glyph unicode="3" horiz-adv-x="1208" d="M102 311l134 56q53 -133 134 -195.5t208 -62.5q68 0 129 17t107 52t72.5 87t26.5 124q0 133 -81.5 212t-237.5 79h-96v131h75q129 0 206 70.5t77 189.5q0 59 -21.5 106.5t-58.5 80t-85 50t-99 17.5q-68 0 -120 -20.5t-91 -53t-64.5 -71.5t-42.5 -76l-133 51 q23 57 61 111.5t93 97.5t128 68.5t163 25.5q88 0 164.5 -26.5t134 -73.5t89.5 -115.5t32 -150.5q0 -96 -48.5 -181.5t-134.5 -132.5q113 -45 177.5 -144t64.5 -241q0 -90 -39 -166.5t-106.5 -132t-155.5 -87.5t-186 -32q-104 0 -182.5 26t-134.5 72t-94 106.5t-65 131.5z " />
<glyph unicode="4" horiz-adv-x="1202" d="M61 387v76l754 971h86v-924h217v-123h-217v-387h-143v387h-697zM248 510h510v676z" />
<glyph unicode="5" horiz-adv-x="1286" d="M143 158l84 104q35 -35 74 -64.5t85 -52t102.5 -35t127.5 -12.5q80 0 149 29t119 76t78.5 110.5t28.5 132.5q0 70 -23.5 133.5t-65.5 109.5t-101.5 74t-130.5 28q-66 0 -120 -13.5t-98 -33t-77 -44t-53 -47.5l-121 37l116 744h730v-129h-615l-82 -500q66 59 153 90 t177 31q94 0 179 -34t147.5 -94.5t99.5 -145.5t37 -187q0 -90 -35 -178t-101.5 -157t-164 -112t-219.5 -43q-86 0 -162 16.5t-137.5 42t-107.5 58.5t-73 66z" />
<glyph unicode="6" horiz-adv-x="1200" d="M123 530q0 154 56.5 302.5t154.5 274.5t232 219t290 132v-112q-102 -31 -195.5 -92.5t-168 -141.5t-126 -171t-67.5 -183q53 63 138 97t196 34q88 0 166 -38t135 -99.5t90 -140.5t33 -160q0 -100 -37 -187.5t-99.5 -151t-145.5 -100.5t-177 -37q-117 0 -206 43 t-149.5 118t-90 176.5t-29.5 217.5zM264 430q0 -70 25.5 -129t69.5 -103t103.5 -69t129.5 -25q74 0 134 25t103 69t67 103t24 129q0 72 -23 133.5t-66 105.5t-103 68.5t-136 24.5q-72 0 -132.5 -24.5t-103.5 -68.5t-67.5 -105.5t-24.5 -133.5z" />
<glyph unicode="7" horiz-adv-x="1021" d="M82 1311v123h858v-95q-150 -172 -240 -353t-139 -356t-65.5 -337t-16.5 -293h-143q2 168 21.5 332t69.5 325.5t134 324.5t215 329h-694z" />
<glyph unicode="8" horiz-adv-x="1224" d="M143 403q0 68 18.5 129.5t52.5 111.5t81 89t102 60q-92 41 -140 121.5t-48 172.5q0 74 30.5 141.5t84 119t128 81t160.5 29.5t161 -29.5t128 -81t84 -119t31 -141.5q0 -92 -46 -172.5t-145 -121.5q115 -43 185.5 -148.5t70.5 -241.5q0 -90 -34.5 -168.5t-98 -136 t-149.5 -90.5t-187 -33q-102 0 -187 33t-148.5 90.5t-98.5 136t-35 168.5zM293 424q0 -76 24.5 -135.5t67.5 -100.5t101 -62.5t126 -21.5t126.5 21.5t101.5 62.5t67.5 100.5t24.5 135.5q0 63 -22.5 120.5t-64.5 101.5t-101.5 69.5t-131.5 25.5t-131 -25.5t-101 -69.5 t-64.5 -101.5t-22.5 -120.5zM354 1069q0 -102 69.5 -167.5t188.5 -65.5t188.5 65.5t69.5 167.5q0 121 -73.5 190.5t-184.5 69.5t-184.5 -69.5t-73.5 -190.5z" />
<glyph unicode="9" horiz-adv-x="1200" d="M123 983q0 100 37 187t101.5 150.5t150.5 100.5t186 37q117 0 203 -43t142 -117.5t85 -176t29 -218.5q0 -154 -52.5 -303t-145.5 -275t-222 -218.5t-285 -131.5v113q104 31 194.5 93.5t161 144.5t116.5 176t59 186q-53 -68 -140.5 -103.5t-199.5 -35.5q-88 0 -165 34.5 t-133.5 95t-89 139.5t-32.5 165zM260 999q0 -72 22.5 -133t65.5 -106t103.5 -70.5t136.5 -25.5q72 0 132 25.5t103 70.5t67.5 106.5t24.5 132.5q0 70 -25.5 129.5t-69.5 104.5t-103.5 70.5t-128.5 25.5q-74 0 -134.5 -25.5t-103.5 -70.5t-66.5 -104.5t-23.5 -129.5z" />
<glyph unicode=":" horiz-adv-x="462" d="M102 100q0 49 37 89t92 40t92 -39.5t37 -89.5q0 -49 -37 -89t-92 -40t-92 40t-37 89zM102 860q0 49 37 89t92 40t92 -40t37 -89t-37 -89t-92 -40t-92 40t-37 89z" />
<glyph unicode=";" horiz-adv-x="462" d="M102 88q0 63 37 99t88 36q27 0 53.5 -10t47 -30.5t34 -53.5t13.5 -78q0 -117 -53.5 -204t-133.5 -136l-38 10q29 25 60.5 87.5t31.5 154.5q-57 0 -98.5 35t-41.5 90zM102 860q0 49 37 89t92 40t92 -40t37 -89t-37 -89t-92 -40t-92 40t-37 89z" />
<glyph unicode="&#x3c;" d="M195 633v135l962 389v-137l-805 -318l805 -317v-139z" />
<glyph unicode="=" d="M195 469v137h962v-137h-962zM195 795v137h962v-137h-962z" />
<glyph unicode="&#x3e;" d="M195 246v135l804 321l-804 318v137l962 -389v-135z" />
<glyph unicode="?" horiz-adv-x="1077" d="M94 1151q45 141 164 224t285 83q104 0 185 -29.5t135.5 -81t83 -120t28.5 -146.5q0 -92 -28.5 -154.5t-72 -109.5t-92.5 -88t-92 -87t-71.5 -106.5t-28.5 -146.5h-148q0 100 29 171t72 123t92 94t92 86t71.5 96.5t28.5 125.5q0 98 -72.5 169t-211.5 71q-129 0 -211 -60.5 t-107 -172.5zM383 100q0 49 37 89t92 40t92 -39.5t37 -89.5q0 -49 -37 -89t-92 -40t-92 40t-37 89z" />
<glyph unicode="@" horiz-adv-x="1636" d="M102 686q0 170 61.5 312.5t165 245t240 158.5t287.5 56q150 0 274.5 -44t214 -125t139.5 -193.5t50 -249.5q0 -113 -26.5 -208t-71.5 -163.5t-106.5 -107.5t-131.5 -39q-86 0 -134 42t-63 113q-43 -80 -108.5 -127t-151.5 -47q-63 0 -118.5 26.5t-95.5 73t-62.5 111 t-22.5 139.5q0 74 27 150t77 137.5t120.5 99t158.5 37.5q90 0 150.5 -50t77.5 -146l28 170h129l-82 -475q-2 -10 -2 -19.5v-17.5q0 -49 25 -77t68 -28t77.5 31t60 86t40 131t14.5 166q0 119 -43 208t-117.5 148.5t-175 90t-213.5 30.5q-147 0 -263 -49t-195.5 -135 t-122.5 -205t-43 -258q0 -121 39.5 -226.5t114.5 -184t184.5 -125t248.5 -46.5q74 0 156 10.5t137 28.5l-31 -135q-55 -16 -125.5 -23.5t-144.5 -7.5q-147 0 -278 47.5t-227.5 138.5t-153 223t-56.5 302zM590 657q0 -104 51 -163.5t139 -59.5q53 0 97.5 23.5t76 65.5 t49 96.5t17.5 115.5q0 102 -55 162.5t-129 60.5q-59 0 -104.5 -24.5t-77 -65.5t-48 -95t-16.5 -116z" />
<glyph unicode="A" horiz-adv-x="1355" d="M123 0l498 1434h110l502 -1434h-146l-131 371h-559l-125 -371h-149zM440 498h473l-196 573q-10 27 -23.5 68t-17.5 61q-6 -20 -17.5 -61t-21.5 -68z" />
<glyph unicode="B" horiz-adv-x="1323" d="M215 0v1434h475q125 0 210 -33t135 -85t71.5 -120t21.5 -137q0 -111 -61 -187.5t-164 -115.5q117 -29 197 -118t80 -237q0 -74 -21.5 -145.5t-75 -127.5t-141.5 -92t-219 -36h-508zM358 129h390q88 0 146 22.5t92 58.5t47.5 83t13.5 96q0 57 -16.5 109.5t-57.5 93.5 t-111.5 65.5t-181.5 24.5h-322v-553zM358 807h297q170 0 255 69.5t85 186.5q0 43 -12 87t-44 78t-89 55.5t-148 21.5h-344v-498z" />
<glyph unicode="C" horiz-adv-x="1318" d="M143 717q0 147 35 281.5t107.5 236.5t184.5 162.5t267 60.5q96 0 167 -19.5t122 -52t87 -74.5t63 -85l-127 -74q-25 35 -52.5 66.5t-64.5 56t-85 39t-110 14.5q-123 0 -208 -55t-137 -143.5t-75.5 -198t-23.5 -215.5q0 -119 25.5 -229.5t79 -195.5t138.5 -136.5 t201 -51.5q129 0 206 50.5t126 132.5l127 -49q-25 -49 -64.5 -96.5t-96 -84.5t-131.5 -59.5t-167 -22.5q-160 0 -272.5 63.5t-184 167t-104.5 236.5t-33 275z" />
<glyph unicode="D" horiz-adv-x="1388" d="M215 0v1434h381q182 0 306 -62.5t201 -164t109.5 -229.5t32.5 -261q0 -123 -29.5 -251t-105.5 -231.5t-203 -169t-319 -65.5h-373zM358 129h240q143 0 239.5 52t154 137t81 189.5t23.5 209.5q0 111 -27 217t-84 188t-147 132.5t-217 50.5h-263v-1176z" />
<glyph unicode="E" horiz-adv-x="1220" d="M215 0v1434h817v-138h-674v-487h455v-135h-455v-537h719v-137h-862z" />
<glyph unicode="F" horiz-adv-x="1155" d="M215 0v1434h838v-138h-695v-487h469v-135h-469v-674h-143z" />
<glyph unicode="G" horiz-adv-x="1402" d="M143 717q0 147 35 281.5t107.5 236.5t184.5 162.5t267 60.5q96 0 167 -19.5t122 -52t87 -74.5t63 -85l-127 -74q-25 35 -52.5 66.5t-64.5 56t-85 39t-110 14.5q-123 0 -208 -55t-137 -143.5t-75.5 -198t-23.5 -215.5q0 -119 25.5 -229.5t79 -195.5t138.5 -136.5 t201 -51.5q158 0 249 96.5t91 260.5v86h-264v127h416v-158q0 -133 -38 -233.5t-104.5 -169t-156 -103.5t-193.5 -35q-160 0 -272.5 63.5t-184 167t-104.5 236.5t-33 275z" />
<glyph unicode="H" horiz-adv-x="1417" d="M215 0v1434h143v-621h701v621h143v-1434h-143v678h-701v-678h-143z" />
<glyph unicode="I" horiz-adv-x="573" d="M215 0v1434h143v-1434h-143z" />
<glyph unicode="J" horiz-adv-x="1077" d="M61 219l113 62q23 -43 43.5 -76t48 -55.5t68.5 -34t106 -11.5q49 0 99.5 13.5t90.5 49.5t64.5 96.5t24.5 154.5v1016h143v-973q0 -147 -41 -241.5t-103.5 -149t-138 -75t-145.5 -20.5q-156 0 -240.5 64.5t-132.5 179.5z" />
<glyph unicode="K" horiz-adv-x="1316" d="M215 0v1434h143v-713l568 713h155l-391 -488l514 -946h-162l-450 825l-234 -290v-535h-143z" />
<glyph unicode="L" horiz-adv-x="1150" d="M215 0v1434h143v-1297h711v-137h-854z" />
<glyph unicode="M" horiz-adv-x="1642" d="M215 0v1434h123l479 -1117l486 1117h124v-1434h-143v1061l-479 -1086l-447 1080v-1055h-143z" />
<glyph unicode="N" horiz-adv-x="1443" d="M215 0v1434h145l725 -1182v1182h144v-1434h-146l-725 1165v-1165h-143z" />
<glyph unicode="O" horiz-adv-x="1474" d="M143 717q0 133 31 265t100.5 238.5t183 172t279.5 65.5t279.5 -65.5t183.5 -172t100.5 -238.5t30.5 -265t-30.5 -265.5t-100.5 -239t-183.5 -172t-279.5 -65.5t-279.5 65.5t-183 172t-100.5 239t-31 265.5zM293 717q0 -117 23.5 -227.5t75.5 -195.5t137 -137.5t208 -52.5 t208 55.5t137.5 143.5t76 197.5t23.5 216.5q0 117 -23.5 227.5t-76 195.5t-137.5 137t-208 52t-208 -55t-137 -143.5t-75.5 -198t-23.5 -215.5z" />
<glyph unicode="P" horiz-adv-x="1273" d="M215 0v1434h524q129 0 215 -37t139.5 -96.5t76 -135t22.5 -153.5q0 -72 -24.5 -146.5t-78 -135t-140.5 -99.5t-210 -39h-381v-592h-143zM358 721h394q84 0 142 26.5t94 67.5t51.5 93.5t15.5 103.5q0 47 -13.5 98t-48.5 94t-93 72t-148 29h-394v-584z" />
<glyph unicode="Q" horiz-adv-x="1474" d="M143 717q0 133 31 265t100.5 238.5t183 172t279.5 65.5t279.5 -65.5t183.5 -172t100.5 -238.5t30.5 -265q0 -84 -11 -168t-37 -162t-66.5 -147.5t-98.5 -122.5l119 -176l-98 -74l-119 176q-59 -33 -128 -50.5t-155 -17.5q-166 0 -279.5 65.5t-183 172t-100.5 239 t-31 265.5zM293 717q0 -117 23.5 -227.5t75.5 -195.5t137 -137.5t208 -52.5q117 0 205 54l-96 143l102 74l90 -135q78 92 111 220t33 257q0 117 -23.5 227.5t-76 195.5t-137.5 137t-208 52t-208 -55t-137 -143.5t-75.5 -198t-23.5 -215.5z" />
<glyph unicode="R" horiz-adv-x="1347" d="M215 0v1434h526q127 0 212 -35t136.5 -90.5t73 -126t21.5 -142.5q0 -66 -18.5 -129t-60.5 -117.5t-109.5 -93t-166.5 -53.5l318 -647h-158l-307 641h-324v-641h-143zM358 770h387q84 0 141.5 23.5t93.5 60.5t51.5 84t15.5 96q0 43 -14.5 90t-48.5 87t-92 67t-147 27h-387 v-535z" />
<glyph unicode="S" horiz-adv-x="1216" d="M133 266l135 49q43 -94 132 -152.5t212 -58.5q141 0 222 68t81 197q0 66 -26.5 118t-71.5 91.5t-103.5 69.5t-121.5 54q-76 29 -150.5 65t-135 86t-97.5 115.5t-37 155.5q0 68 28.5 129.5t83 106.5t132.5 71.5t178 26.5q158 0 264.5 -64.5t134.5 -162.5l-133 -45 q-27 57 -95.5 100t-176.5 43q-127 0 -198 -55t-71 -148q0 -57 28 -99t74 -75.5t105.5 -60.5t122.5 -51q74 -29 147.5 -68t133 -94t96.5 -130t37 -175q0 -96 -34 -170t-93 -124t-143 -77t-183 -27q-90 0 -167.5 24t-139 63.5t-105.5 92t-65 111.5z" />
<glyph unicode="T" horiz-adv-x="1177" d="M123 1296v138h932v-138h-396v-1296h-143v1296h-393z" />
<glyph unicode="U" horiz-adv-x="1392" d="M205 532v902h143v-902q0 -129 29 -211.5t77 -131t110.5 -67t131.5 -18.5q70 0 132.5 18.5t110.5 67t76.5 131t28.5 211.5v902h144v-902q0 -150 -34 -255t-97.5 -172.5t-154.5 -98.5t-206 -31t-206 31t-154.5 98.5t-97 173t-33.5 254.5z" />
<glyph unicode="V" horiz-adv-x="1310" d="M113 1434h151l400 -1198l380 1198h154l-489 -1434h-105z" />
<glyph unicode="W" horiz-adv-x="1693" d="M113 1434h151l199 -1125l321 1125h107l309 -1100l232 1100h149l-311 -1434h-90l-344 1151l-349 -1151h-98z" />
<glyph unicode="X" horiz-adv-x="1150" d="M90 0l412 739l-381 695h155l302 -553l294 553h150l-379 -672l420 -762h-154l-342 623l-325 -623h-152z" />
<glyph unicode="Y" horiz-adv-x="1261" d="M92 1434h158l381 -738l391 738h147l-464 -865v-569h-144v563z" />
<glyph unicode="Z" horiz-adv-x="1304" d="M143 0v100l836 1198h-789v136h971v-105l-825 -1194h825v-135h-1018z" />
<glyph unicode="[" horiz-adv-x="776" d="M236 -266v1724h428v-129h-285v-1466h285v-129h-428z" />
<glyph unicode="\" horiz-adv-x="995" d="M0 1458h139l805 -1724h-139z" />
<glyph unicode="]" horiz-adv-x="776" d="M113 -137h284v1466h-284v129h428v-1724h-428v129z" />
<glyph unicode="^" d="M205 741l391 717h156l395 -717h-148l-323 539l-324 -539h-147z" />
<glyph unicode="_" horiz-adv-x="1085" d="M20 -205h1045v-157h-1045v157z" />
<glyph unicode="`" horiz-adv-x="686" d="M14 1499h219l291 -319h-145z" />
<glyph unicode="a" horiz-adv-x="1062" d="M123 330q0 90 31.5 155.5t84 107.5t122 62.5t143.5 20.5q66 0 135.5 -16.5t146.5 -57.5v88q0 80 -19 129t-51 78t-74 39t-85 10q-39 0 -82 -10t-84 -26.5t-79 -36t-66 -39.5l-41 122q63 41 160.5 78t205.5 37q55 0 117 -15.5t113 -55t85 -110.5t34 -181v-709h-134v102 q-63 -57 -142 -92t-165 -35q-158 0 -257 89.5t-99 265.5zM256 330q0 -104 61.5 -167t176.5 -63q47 0 90 14.5t79.5 37t67.5 52t55 58.5v203q-51 35 -125.5 60.5t-142.5 25.5q-53 0 -100 -13.5t-83 -41t-57.5 -68.5t-21.5 -98z" />
<glyph unicode="b" horiz-adv-x="1150" d="M184 0v1407l144 72v-535q51 55 125.5 91t152.5 36q98 0 178 -37t136.5 -107.5t87 -172t30.5 -230.5q0 -268 -110.5 -408.5t-309.5 -140.5q-55 0 -98 10.5t-76.5 28t-62.5 38t-53 42.5v-94h-144zM328 268q43 -74 116.5 -119t151.5 -45q147 0 220 113t73 307 q0 203 -73 310.5t-220 107.5q-49 0 -91 -15.5t-77 -39t-60.5 -52t-39.5 -53.5v-514z" />
<glyph unicode="c" horiz-adv-x="985" d="M113 522q0 260 113.5 404.5t316.5 144.5q117 0 205 -56.5t131 -162.5l-131 -51q-25 59 -75 100t-136 41q-74 0 -125.5 -29.5t-85 -84t-49 -132.5t-15.5 -174q0 -199 65.5 -308.5t204.5 -109.5q86 0 145.5 43t86.5 117l129 -49q-37 -111 -134.5 -175.5t-232.5 -64.5 q-190 0 -301.5 142.5t-111.5 404.5z" />
<glyph unicode="d" horiz-adv-x="1150" d="M113 524q0 260 115.5 403.5t316.5 143.5q98 0 164.5 -29.5t113.5 -68.5v434l144 72v-1479h-144v90q-47 -47 -113.5 -81t-164.5 -34q-100 0 -180 39t-136.5 111t-86 173t-29.5 226zM262 524q0 -88 20.5 -164.5t59.5 -133t94 -89.5t125 -33q78 0 148.5 43t113.5 121v523 q-16 27 -40.5 53t-56.5 47.5t-74 36t-91 14.5q-145 0 -222 -107.5t-77 -310.5z" />
<glyph unicode="e" horiz-adv-x="1083" d="M113 524q0 131 33.5 232.5t93 171t143.5 106.5t184 37q84 0 159 -29.5t132 -91t90 -158t33 -227.5v-40.5t-4 -59.5h-713q18 -160 96 -258t213 -98q57 0 117 18t119 63l78 -96q-61 -51 -144.5 -85t-175.5 -34q-106 0 -190 44t-142.5 120t-90 175.5t-31.5 209.5zM260 594 h576q0 106 -27 174t-67 106.5t-87 53t-88 14.5q-127 0 -212 -84t-95 -264z" />
<glyph unicode="f" horiz-adv-x="675" d="M61 918v129h168v178q0 63 18.5 108t49.5 73t70 40t79 12q59 0 101.5 -15.5t77.5 -33.5v-125q-33 16 -69 28.5t-81 12.5q-37 0 -58.5 -11t-30.5 -28.5t-11 -40t-2 -43.5v-155h252v-129h-252v-918h-144v918h-168z" />
<glyph unicode="g" horiz-adv-x="1155" d="M113 524q0 129 31.5 230.5t90 172t138.5 107.5t176 37q59 0 105 -13.5t80 -32.5t57.5 -40.5t35.5 -36.5v99h144v-1031q0 -129 -41 -214t-108.5 -137t-157 -74.5t-185.5 -26.5l-65 112q127 6 207.5 32t127 64t62.5 86t16 101v160q-45 -66 -111.5 -105t-174.5 -39 q-84 0 -162 35t-137.5 103.5t-94 171t-34.5 239.5zM262 524q0 -100 23.5 -178t65.5 -132t98 -82t124 -28q66 0 138.5 46.5t115.5 128.5v503q-23 39 -54.5 69t-66 50.5t-69.5 30.5t-64 10q-156 0 -233.5 -107.5t-77.5 -310.5z" />
<glyph unicode="h" horiz-adv-x="1146" d="M184 0v1411l144 68v-549q47 72 116.5 106.5t153.5 34.5q193 0 284 -115.5t91 -375.5v-580h-144v639q0 166 -69.5 234.5t-173.5 68.5q-55 0 -102.5 -14.5t-82 -49t-54 -92t-19.5 -143.5v-643h-144z" />
<glyph unicode="i" horiz-adv-x="516" d="M164 1356q0 41 26.5 69.5t67.5 28.5t67.5 -28.5t26.5 -69.5t-26.5 -67.5t-67.5 -26.5t-67.5 26.5t-26.5 67.5zM186 0v1047h144v-1047h-144z" />
<glyph unicode="j" horiz-adv-x="528" d="M-61 -324q74 6 123 24.5t76.5 45.5t38.5 60.5t11 70.5v1170h144v-1113q0 -104 -29 -173.5t-75 -111.5t-104 -61.5t-120 -23.5zM166 1356q0 41 26.5 69.5t67.5 28.5t67.5 -28.5t26.5 -69.5t-26.5 -67.5t-67.5 -26.5t-67.5 26.5t-26.5 67.5z" />
<glyph unicode="k" horiz-adv-x="1046" d="M184 0v1409l144 70v-832l370 400h166l-262 -279l393 -768h-157l-336 664l-174 -187v-477h-144z" />
<glyph unicode="l" horiz-adv-x="532" d="M195 0v1409l143 70v-1479h-143z" />
<glyph unicode="m" horiz-adv-x="1726" d="M184 0v1047h144v-103q109 127 284 127q84 0 161 -42t122 -118q43 66 120 113t179 47q76 0 141.5 -26.5t113.5 -74.5t75.5 -118t27.5 -156v-696h-143v641q0 49 -8 102.5t-31.5 97.5t-69 72.5t-118.5 28.5q-59 0 -104.5 -24.5t-76 -65.5t-46 -95.5t-15.5 -115.5v-641h-143 v641q0 49 -8.5 102.5t-32 97.5t-68.5 72.5t-119 28.5q-61 0 -106 -21.5t-75 -60.5t-45 -90t-15 -113v-657h-144z" />
<glyph unicode="n" horiz-adv-x="1146" d="M184 0v1047h144v-115q49 72 117.5 105.5t152.5 33.5q193 0 284 -115.5t91 -375.5v-580h-144v639q0 166 -69.5 234.5t-173.5 68.5q-55 0 -102.5 -14.5t-82 -49t-54 -92t-19.5 -143.5v-643h-144z" />
<glyph unicode="o" horiz-adv-x="1122" d="M113 522q0 129 32.5 230.5t91 172t141.5 108.5t183 38t183 -37t141.5 -106.5t91.5 -171t33 -232.5q0 -129 -33 -231.5t-91.5 -173t-141 -107.5t-183.5 -37q-100 0 -183 37t-141.5 106.5t-91 171t-32.5 232.5zM262 522q0 -197 76 -307.5t223 -110.5q143 0 221 111t78 309 q0 197 -75.5 307.5t-223.5 110.5q-147 0 -223 -107.5t-76 -312.5z" />
<glyph unicode="p" horiz-adv-x="1159" d="M184 -416v1463h144v-95q51 47 115.5 83t170.5 36q100 0 180 -39t136.5 -110.5t86.5 -173t30 -224.5q0 -131 -32 -233.5t-89.5 -172t-137.5 -106.5t-174 -37q-111 0 -176 39t-110 92v-450zM328 266q53 -70 118.5 -116t151.5 -46q143 0 221 107.5t78 312.5q0 193 -79 305.5 t-220 112.5q-86 0 -156.5 -42t-113.5 -120v-514z" />
<glyph unicode="q" horiz-adv-x="1155" d="M113 522q0 123 28.5 224.5t83 174t132 111.5t178.5 39q51 0 94 -11t77.5 -27.5t64.5 -38t56 -42.5v95h144v-1391l-144 -66v516q-53 -59 -116.5 -95t-161.5 -36q-201 0 -318.5 142.5t-117.5 404.5zM262 522q0 -205 75 -311.5t218 -106.5q49 0 90 16.5t75 41t60.5 54.5 t46.5 54v510q-47 86 -120.5 124t-151.5 38q-70 0 -124 -32.5t-92 -90t-57.5 -133.5t-19.5 -164z" />
<glyph unicode="r" horiz-adv-x="790" d="M184 0v1047h144v-148q57 86 133 129t147 43q78 0 131 -43l-22 -139q-20 12 -52 25.5t-83 13.5q-35 0 -79 -16.5t-83 -55.5t-65.5 -103.5t-26.5 -160.5v-592h-144z" />
<glyph unicode="s" horiz-adv-x="948" d="M119 158l100 88q47 -57 119 -100.5t154 -43.5q86 0 145 39t59 113q0 47 -22.5 83t-59 62.5t-84 48t-94.5 39.5q-61 25 -118.5 53.5t-100.5 65.5t-68.5 85t-25.5 114q0 59 25.5 108.5t69.5 84t106.5 54t136.5 19.5q106 0 191 -42t149 -118l-94 -80q-41 41 -102.5 77 t-147.5 36q-92 0 -145.5 -37t-53.5 -100q0 -41 20.5 -69.5t53.5 -52t76 -42t90 -37.5q57 -23 117.5 -50.5t107.5 -66t77.5 -93t30.5 -134.5q0 -131 -94 -209t-258 -78q-106 0 -200.5 52.5t-159.5 130.5z" />
<glyph unicode="t" horiz-adv-x="755" d="M61 918v129h179v360l143 72v-432h266v-129h-266v-642q0 -35 3 -64.5t15.5 -52t35 -35.5t59.5 -13q53 0 91 20.5t66 40.5l-16 -149q-41 -23 -86.5 -35.5t-104.5 -12.5q-113 0 -159.5 69t-46.5 171v703h-179z" />
<glyph unicode="u" horiz-adv-x="1146" d="M174 463v584h143v-639q0 -164 69 -234t173 -70q55 0 102.5 14.5t83 49.5t55 92t19.5 143v644h144v-1047h-144v100q-55 -72 -116.5 -98.5t-143.5 -26.5q-203 0 -294 115t-91 373z" />
<glyph unicode="v" horiz-adv-x="1030" d="M82 1047h147l291 -818l285 818h143l-383 -1047h-100z" />
<glyph unicode="w" horiz-adv-x="1441" d="M82 1047h143l197 -863l250 863h98l254 -873l193 873h143l-258 -1047h-129l-254 768l-248 -768h-131z" />
<glyph unicode="x" horiz-adv-x="1028" d="M82 0l352 537l-328 510h164l258 -400l238 400h152l-322 -504l350 -543h-164l-276 428l-270 -428h-154z" />
<glyph unicode="y" horiz-adv-x="1046" d="M61 1047h146l299 -844l305 844h154l-535 -1444h-141l155 430z" />
<glyph unicode="z" horiz-adv-x="1021" d="M143 0v88l535 830h-494v129h684v-86l-538 -832h536v-129h-723z" />
<glyph unicode="{" horiz-adv-x="774" d="M133 539v116h8q72 0 114 61.5t42 166.5v102q0 236 106.5 352.5t278.5 120.5v-121q-121 -4 -179.5 -85t-58.5 -228v-115q0 -90 -15 -148.5t-44 -92t-70 -49t-94 -19.5v-8q53 -4 94 -16.5t70 -46t44 -92t15 -154.5v-115q0 -147 58.5 -228t179.5 -85v-121 q-172 4 -278.5 120.5t-106.5 352.5v104q0 100 -42 164t-114 64h-8z" />
<glyph unicode="|" horiz-adv-x="552" d="M205 -420v2069h143v-2069h-143z" />
<glyph unicode="}" horiz-adv-x="774" d="M92 -145q121 4 179.5 84.5t58.5 228.5v115q0 90 15 148t44 92t70 49.5t94 19.5v8q-53 4 -94 16.5t-70 46t-44 92t-15 154.5v115q0 147 -58.5 228t-179.5 85v121q172 -4 278.5 -120.5t106.5 -352.5v-104q0 -100 42 -164t114 -64h8v-116h-8q-72 0 -114 -61.5t-42 -166.5 v-102q0 -236 -106.5 -352.5t-278.5 -120.5v121z" />
<glyph unicode="~" d="M199 567q0 51 13 99.5t44 85t79 59.5t118 23q66 0 127 -20.5t118.5 -44.5t110.5 -44t102 -20q68 0 112 35.5t48 93.5h82q0 -53 -14.5 -101.5t-45 -85.5t-78.5 -58.5t-116 -21.5q-63 0 -123.5 20.5t-117 44t-111.5 44t-107 20.5q-68 0 -111.5 -34.5t-47.5 -94.5h-82z" />
<glyph unicode="&#xa1;" horiz-adv-x="542" d="M147 942q0 49 37 89t92 40t92.5 -40t37.5 -89t-37 -89t-93 -40q-55 0 -92 40t-37 89zM199 29l63 618h23l61 -618v-439h-147v439z" />
<glyph unicode="&#xa2;" horiz-adv-x="1046" d="M133 717q0 229 89 365.5t249 170.5v205h141v-198q106 -10 181 -61.5t114 -158.5l-139 -53q-23 59 -72 97t-123 38q-147 0 -218.5 -106.5t-71.5 -298.5q0 -195 69.5 -301.5t210.5 -106.5q78 0 134.5 42t78.5 116l137 -49q-68 -229 -301 -248v-195h-141v199 q-158 33 -248 172t-90 371z" />
<glyph unicode="&#xa3;" horiz-adv-x="1236" d="M184 614v117h166q-16 33 -34.5 64.5t-33 68.5t-23.5 85t-9 114q0 76 27.5 147.5t84 127t143.5 88t206 32.5q135 0 231 -37t174 -96l-55 -131q-23 18 -52.5 39.5t-71.5 41t-97.5 33t-128.5 13.5q-80 0 -138.5 -23.5t-95.5 -60.5t-54 -83t-17 -93q0 -59 14 -106.5 t32.5 -87.5t36 -72.5t23.5 -63.5h336v-117h-309v-22q0 -262 -217 -459h823v-133h-950v162q55 25 92 76t58.5 111.5t29.5 124t8 112.5v28h-199z" />
<glyph unicode="&#xa4;" horiz-adv-x="1300" d="M104 246l140 139q-39 59 -57.5 134t-18.5 163q0 86 17.5 159.5t56.5 139.5l-138 137l103 107l135 -133q59 45 137 71.5t170 26.5t169 -25.5t136 -70.5l133 131l109 -113l-133 -133q72 -125 72 -297q0 -180 -80 -303l141 -139l-102 -105l-138 137q-121 -96 -307 -96 q-184 0 -303 94l-133 -135zM313 682q0 -80 24.5 -147.5t69 -116.5t105.5 -77t137 -28t139.5 28t107.5 77t68.5 116.5t24.5 147.5t-24.5 147.5t-68.5 116.5t-107.5 78t-139.5 29t-137 -29t-105.5 -78t-69 -116.5t-24.5 -147.5z" />
<glyph unicode="&#xa5;" horiz-adv-x="1142" d="M61 1434h160l348 -664l365 664h147l-444 -801h317v-123h-311v-135h311v-123h-311v-252h-143v252h-336v123h336v135h-336v123h340z" />
<glyph unicode="&#xa6;" horiz-adv-x="552" d="M205 -246v666h143v-666h-143zM205 805v670h143v-670h-143z" />
<glyph unicode="&#xa7;" horiz-adv-x="1112" d="M133 -70l109 97q14 -18 40.5 -41t65.5 -43.5t91.5 -34.5t117.5 -14q123 0 197.5 39.5t74.5 144.5q0 61 -39.5 105t-98 76t-124 55.5t-118.5 45.5q-59 25 -111.5 50.5t-92.5 59.5t-63.5 78t-23.5 109q0 84 44 141.5t109 80.5q-74 41 -113.5 113.5t-39.5 170.5 q0 70 31.5 125t85 93t124 57.5t150.5 19.5q78 0 140.5 -15.5t110.5 -39t81.5 -52t56.5 -55.5l-111 -88q-16 16 -38.5 35t-55.5 35t-78 26.5t-106 10.5q-111 0 -174.5 -40t-63.5 -122q0 -45 27 -79t73 -61.5t109.5 -53t134.5 -52.5q63 -25 122 -50.5t104 -63t71.5 -91 t26.5 -131.5q0 -76 -30.5 -131t-98.5 -86q70 -51 99.5 -117.5t29.5 -152.5q0 -160 -111.5 -245t-304.5 -85q-78 0 -146.5 15.5t-123.5 40t-95 56.5t-65 64zM311 657q0 -49 37 -82.5t95.5 -59.5t130 -48.5t143.5 -48.5q53 23 82.5 57.5t29.5 89.5q0 47 -27.5 82t-74.5 62.5 t-109.5 51t-134.5 48.5q-80 -12 -126 -52t-46 -100z" />
<glyph unicode="&#xa8;" horiz-adv-x="686" d="M80 1337q0 41 27.5 69t68.5 28t68.5 -28t27.5 -69t-27.5 -68.5t-68.5 -27.5t-68.5 27.5t-27.5 68.5zM420 1337q0 41 27.5 69t68.5 28t68.5 -28t27.5 -69t-27.5 -68.5t-68.5 -27.5t-68.5 27.5t-27.5 68.5z" />
<glyph unicode="&#xa9;" horiz-adv-x="1789" d="M154 717q0 158 56 293t156.5 235.5t235.5 156.5t293 56t293 -56t235.5 -156.5t156.5 -236t56 -292.5q0 -158 -56 -293t-156.5 -235.5t-235.5 -157t-293 -56.5t-293 56.5t-235.5 157t-156.5 235.5t-56 293zM270 717q0 -135 47.5 -250t131 -200t197.5 -133t249 -48 t248.5 48t196.5 133t129.5 200t46.5 250t-46.5 249.5t-129.5 198.5t-196.5 132.5t-248.5 48.5t-249 -48.5t-197.5 -132.5t-131 -198.5t-47.5 -249.5zM535 727q0 205 101 326t288 121q111 0 187.5 -59.5t115.5 -166.5l-129 -53q-20 59 -67.5 102t-125.5 43 q-68 0 -112.5 -21.5t-70.5 -62.5t-37 -98t-11 -131q0 -160 50 -237.5t187 -77.5q72 0 129.5 36.5t75.5 129.5l117 -48q-35 -121 -121 -184t-205 -63q-174 0 -273 113.5t-99 330.5z" />
<glyph unicode="&#xaa;" horiz-adv-x="946" d="M102 852q0 74 31 127t80 89t109.5 53.5t119.5 17.5q51 0 112.5 -13.5t109.5 -33.5v28q0 121 -48.5 166t-158.5 45q-78 0 -137.5 -20.5t-100.5 -53.5l-37 121q47 35 122 57.5t173 22.5q55 0 112.5 -9t105.5 -42t78 -96.5t30 -169.5v-561h-139v61q-20 -16 -49 -30.5 t-62 -26t-67.5 -18.5t-67.5 -7q-139 0 -227.5 74t-88.5 219zM250 852q0 -80 50 -126t134 -46q61 0 127 29.5t103 64.5v189q-43 23 -102.5 38t-104.5 15q-39 0 -76 -9.5t-66.5 -29t-47 -51t-17.5 -74.5z" />
<glyph unicode="&#xab;" horiz-adv-x="1036" d="M92 524l311 523h160l-311 -523l311 -524h-160zM500 524l311 523h164l-311 -523l311 -524h-164z" />
<glyph unicode="&#xac;" d="M195 811v137h962v-588h-147v451h-815z" />
<glyph unicode="&#xad;" horiz-adv-x="825" d="M184 541v139h457v-139h-457z" />
<glyph unicode="&#xae;" horiz-adv-x="1789" d="M154 717q0 158 56 293t156.5 235.5t235.5 156.5t293 56t293 -56t235.5 -156.5t156.5 -236t56 -292.5q0 -158 -56 -293t-156.5 -235.5t-235.5 -157t-293 -56.5t-293 56.5t-235.5 157t-156.5 235.5t-56 293zM270 717q0 -135 47.5 -250t131 -200t197.5 -133t249 -48 t248.5 48t196.5 133t129.5 200t46.5 250t-46.5 249.5t-129.5 198.5t-196.5 132.5t-248.5 48.5t-249 -48.5t-197.5 -132.5t-131 -198.5t-47.5 -249.5zM584 281v866h424q63 0 109 -24.5t74 -61.5t41 -81t13 -83q0 -92 -56 -169t-159 -93l209 -354h-147l-195 352h-180v-352 h-133zM717 748h295q47 0 75.5 43t28.5 102q0 20 -6 44t-19.5 43t-33 31.5t-45.5 12.5h-295v-276z" />
<glyph unicode="&#xaf;" horiz-adv-x="686" d="M8 1247v125h676v-125h-676z" />
<glyph unicode="&#xb0;" horiz-adv-x="856" d="M82 1264q0 74 26.5 136t73.5 107t110.5 71t137.5 26q72 0 135.5 -26t109.5 -71t72.5 -107.5t26.5 -135.5q0 -74 -26.5 -136.5t-72.5 -108.5t-109.5 -71.5t-135.5 -25.5q-74 0 -137.5 25.5t-110.5 71.5t-73.5 108.5t-26.5 136.5zM233 1264q0 -86 57.5 -143.5t139.5 -57.5 q84 0 137.5 57.5t53.5 143.5q0 92 -53.5 147t-137.5 55q-82 0 -139.5 -55t-57.5 -147z" />
<glyph unicode="&#xb1;" d="M195 0v137h962v-137h-962zM195 764v137h405v344h148v-344h409v-137h-409v-344h-148v344h-405z" />
<glyph unicode="&#xb2;" horiz-adv-x="757" d="M82 909q0 82 21.5 140.5t61.5 105.5t95 87t123 85q66 43 102.5 90t36.5 127q0 20 -8 45t-27.5 46.5t-50 34.5t-76.5 13q-141 0 -172 -143l-104 43q23 88 95.5 146.5t197.5 58.5q117 0 194.5 -67.5t77.5 -186.5q0 -111 -59.5 -181.5t-179.5 -144.5q-80 -49 -126 -92 t-69 -98h432v-109h-565z" />
<glyph unicode="&#xb3;" horiz-adv-x="751" d="M70 1100l112 47q31 -74 80 -115t119 -41q78 0 120 42t42 108q0 59 -38 108t-106 49h-69v103h45q72 0 102.5 44t30.5 99q0 53 -34 97.5t-105 44.5q-59 0 -104.5 -38t-69.5 -94l-109 37q35 84 111.5 140.5t179.5 56.5q115 0 188.5 -60.5t73.5 -171.5q0 -55 -30.5 -109 t-86.5 -79q66 -23 109 -76t43 -135q0 -129 -82 -198.5t-211 -69.5q-117 0 -194.5 58.5t-116.5 152.5z" />
<glyph unicode="&#xb4;" horiz-adv-x="686" d="M162 1180l291 319h219l-365 -319h-145z" />
<glyph unicode="&#xb5;" horiz-adv-x="1157" d="M184 -410v1457h144v-639q0 -96 16 -155.5t48 -92.5t77 -44.5t102 -11.5q55 0 102.5 14.5t82.5 49.5t54 92t19 143v644h144v-1047h-144v104q-78 -80 -152.5 -104.5t-133.5 -24.5q-74 0 -123 26t-92 99v-440z" />
<glyph unicode="&#xb6;" horiz-adv-x="1296" d="M72 1006q0 80 23.5 156.5t78.5 137t144.5 97.5t220.5 37h563v-1643l-146 -65v1564h-208v-1634l-146 -66v979q-152 0 -253 40t-162.5 103.5t-88 141.5t-26.5 152z" />
<glyph unicode="&#xb7;" horiz-adv-x="462" d="M102 715q0 49 37 89t92 40t92 -40t37 -89t-37 -89t-92 -40t-92 40t-37 89z" />
<glyph unicode="&#xb8;" horiz-adv-x="686" d="M174 -422l94 62q12 -16 28.5 -18.5t45.5 -2.5q43 0 76 29.5t33 75.5q0 39 -39 68.5t-86 29.5q-51 0 -74 -10l-25 30l140 178h84l-80 -133q59 0 100 -14t66.5 -37.5t37 -53.5t11.5 -61q0 -90 -67 -145t-165 -55q-59 0 -104 15t-76 42z" />
<glyph unicode="&#xb9;" horiz-adv-x="409" d="M51 1573v88q57 0 88 30.5t47 82.5h84v-865h-123v664h-96z" />
<glyph unicode="&#xba;" horiz-adv-x="960" d="M92 1008q0 213 104.5 331.5t282.5 118.5q180 0 284.5 -118.5t104.5 -331.5q0 -217 -104.5 -334t-284.5 -117q-178 0 -282.5 117t-104.5 334zM236 1008q0 -154 65 -236t178 -82q123 0 184.5 82t61.5 236t-61.5 235.5t-184.5 81.5q-113 0 -178 -82t-65 -235z" />
<glyph unicode="&#xbb;" horiz-adv-x="1036" d="M61 0l312 524l-312 523h160l311 -523l-311 -524h-160zM469 0l311 524l-311 523h164l311 -523l-311 -524h-164z" />
<glyph unicode="&#xbc;" horiz-adv-x="1380" d="M29 -25l979 1483h141l-979 -1483h-141zM71 1243v88q57 0 88 31t47 82h86v-864h-125v663h-96zM639 221v62l459 583h96v-532h106v-113h-106v-221h-125v221h-430zM805 334h264v352z" />
<glyph unicode="&#xbd;" horiz-adv-x="1480" d="M29 -25l979 1483h141l-979 -1483h-141zM71 1243v88q57 0 88 31t47 82h86v-864h-125v663h-96zM805 0q0 82 21.5 140.5t61.5 105.5t95 87t123 85q66 43 102.5 90t36.5 127q0 20 -8 46t-27.5 46.5t-50 34.5t-76.5 14q-141 0 -172 -145l-104 43q23 88 95.5 146.5t197.5 58.5 q117 0 194.5 -68t77.5 -186q0 -111 -59.5 -181.5t-179.5 -144.5q-80 -49 -126 -90t-69 -96h432v-113h-565z" />
<glyph unicode="&#xbe;" horiz-adv-x="1675" d="M70 766l112 47q31 -74 80 -115t119 -41q78 0 120 43t42 109q0 29 -10.5 57.5t-29 51t-45 37t-59.5 14.5h-69v102h45q72 0 102.5 44t30.5 99q0 53 -34 97.5t-105 44.5q-59 0 -104.5 -38t-69.5 -93l-109 37q35 84 111.5 140t179.5 56q115 0 188.5 -60.5t73.5 -170.5 q0 -55 -30.5 -109.5t-86.5 -79.5q66 -23 109 -77t43 -136q0 -129 -82 -199.5t-211 -70.5q-117 0 -194.5 58.5t-116.5 152.5zM322 -25l979 1483h141l-979 -1483h-141zM932 221v62l459 583h96v-532h106v-113h-106v-221h-125v221h-430zM1098 334h264v352z" />
<glyph unicode="&#xbf;" horiz-adv-x="1077" d="M102 -18q0 82 29 140t71 105t92 87t93 87.5t71.5 107.5t28.5 146h146q0 -100 -29 -167.5t-72 -116.5t-92 -87t-92 -79t-71.5 -93.5t-28.5 -129.5q0 -115 72.5 -189t209.5 -74q156 0 242 86t86 240h148q0 -102 -35 -186t-98.5 -143.5t-150.5 -92.5t-192 -33 q-104 0 -184 30t-134 82t-82 124t-28 156zM438 940q0 49 36 90t91 41q27 0 51.5 -11t43 -29.5t29.5 -42t11 -48.5q0 -51 -41 -88t-94 -37q-55 0 -91 37t-36 88z" />
<glyph unicode="&#xc0;" horiz-adv-x="1355" d="M123 0l498 1434h110l502 -1434h-146l-131 371h-559l-125 -371h-149zM379 1888h219l291 -319h-145zM440 498h473l-196 573q-10 27 -23.5 68t-17.5 61q-6 -20 -17.5 -61t-21.5 -68z" />
<glyph unicode="&#xc1;" horiz-adv-x="1355" d="M123 0l498 1434h110l502 -1434h-146l-131 371h-559l-125 -371h-149zM440 498h473l-196 573q-10 27 -23.5 68t-17.5 61q-6 -20 -17.5 -61t-21.5 -68zM455 1569l291 319h219l-365 -319h-145z" />
<glyph unicode="&#xc2;" horiz-adv-x="1355" d="M123 0l498 1434h110l502 -1434h-146l-131 371h-559l-125 -371h-149zM305 1569l289 319h164l289 -319h-133l-238 206l-237 -206h-134zM440 498h473l-196 573q-10 27 -23.5 68t-17.5 61q-6 -20 -17.5 -61t-21.5 -68z" />
<glyph unicode="&#xc3;" horiz-adv-x="1355" d="M123 0l498 1434h110l502 -1434h-146l-131 371h-559l-125 -371h-149zM326 1630q0 109 46 167t144 58q55 0 100.5 -16t85.5 -35.5t76.5 -36t75.5 -16.5t65.5 24.5t30.5 71.5h78q0 -109 -45 -167t-143 -58q-55 0 -100.5 16.5t-85 35t-76.5 34.5t-76 16t-65.5 -23.5 t-30.5 -70.5h-80zM440 498h473l-196 573q-10 27 -23.5 68t-17.5 61q-6 -20 -17.5 -61t-21.5 -68z" />
<glyph unicode="&#xc4;" horiz-adv-x="1355" d="M123 0l498 1434h110l502 -1434h-146l-131 371h-559l-125 -371h-149zM410 1726q0 41 27.5 69t68.5 28t68.5 -28t27.5 -69t-27.5 -68.5t-68.5 -27.5t-68.5 27.5t-27.5 68.5zM440 498h473l-196 573q-10 27 -23.5 68t-17.5 61q-6 -20 -17.5 -61t-21.5 -68zM750 1726 q0 41 27.5 69t68.5 28t68.5 -28t27.5 -69t-27.5 -68.5t-68.5 -27.5t-68.5 27.5t-27.5 68.5z" />
<glyph unicode="&#xc5;" horiz-adv-x="1355" d="M123 0l459 1321q-57 29 -95 84t-38 127q0 47 18 89t50 72.5t75 48t90 17.5t90 -17.5t75 -48t51.5 -72.5t19.5 -89q0 -72 -41 -129t-105 -86l461 -1317h-146l-131 371h-559l-125 -371h-149zM440 498h473l-237 690zM569 1532q0 -53 33 -89t80 -36q49 0 82 36t33 89t-33 87 t-82 34q-47 0 -80 -34t-33 -87z" />
<glyph unicode="&#xc6;" horiz-adv-x="1759" d="M-33 0l834 1434h770v-138h-557v-487h379v-135h-379v-537h602v-137h-746v371h-530l-211 -371h-162zM412 498h458v813z" />
<glyph unicode="&#xc7;" horiz-adv-x="1318" d="M143 717q0 147 35 281.5t107.5 236.5t184.5 162.5t267 60.5q96 0 167 -19.5t122 -52t87 -74.5t63 -85l-127 -74q-25 35 -52.5 66.5t-64.5 56t-85 40t-110 15.5q-123 0 -208 -56t-137 -144.5t-75.5 -198t-23.5 -215.5q0 -119 25.5 -229.5t79 -195.5t138.5 -136.5 t201 -51.5q129 0 206 50.5t126 132.5l127 -49q-25 -47 -61.5 -92.5t-89 -81t-120 -59t-151.5 -28.5l-53 -90q59 0 100 -14t66.5 -37.5t37 -53.5t11.5 -61q0 -90 -66.5 -145t-164.5 -55q-59 0 -104.5 15t-76.5 42l94 62q12 -16 29 -18.5t45 -2.5q43 0 76 29.5t33 75.5 q0 39 -39 68.5t-86 29.5q-51 0 -74 -10l-24 30l106 135q-145 10 -247.5 77t-168 169.5t-95.5 230.5t-30 263z" />
<glyph unicode="&#xc8;" horiz-adv-x="1220" d="M215 0v1434h817v-138h-674v-487h455v-135h-455v-537h719v-137h-862zM239 1888h219l291 -319h-145z" />
<glyph unicode="&#xc9;" horiz-adv-x="1220" d="M215 0v1434h817v-138h-674v-487h455v-135h-455v-537h719v-137h-862zM412 1569l291 319h219l-365 -319h-145z" />
<glyph unicode="&#xca;" horiz-adv-x="1220" d="M215 0v1434h817v-138h-674v-487h455v-135h-455v-537h719v-137h-862zM254 1569l289 319h164l289 -319h-133l-238 206l-237 -206h-134z" />
<glyph unicode="&#xcb;" horiz-adv-x="1220" d="M215 0v1434h817v-138h-674v-487h455v-135h-455v-537h719v-137h-862zM305 1726q0 41 27.5 69t68.5 28t68.5 -28t27.5 -69t-27.5 -68.5t-68.5 -27.5t-68.5 27.5t-27.5 68.5zM645 1726q0 41 27.5 69t68.5 28t68.5 -28t27.5 -69t-27.5 -68.5t-68.5 -27.5t-68.5 27.5 t-27.5 68.5z" />
<glyph unicode="&#xcc;" horiz-adv-x="573" d="M-6 1888h219l291 -319h-145zM215 0v1434h143v-1434h-143z" />
<glyph unicode="&#xcd;" horiz-adv-x="573" d="M60 1569l291 319h219l-365 -319h-145zM215 0v1434h143v-1434h-143z" />
<glyph unicode="&#xce;" horiz-adv-x="573" d="M-86 1569l289 319h164l289 -319h-133l-238 206l-237 -206h-134zM215 0v1434h143v-1434h-143z" />
<glyph unicode="&#xcf;" horiz-adv-x="573" d="M19 1726q0 41 27.5 69t68.5 28t68.5 -28t27.5 -69t-27.5 -68.5t-68.5 -27.5t-68.5 27.5t-27.5 68.5zM215 0v1434h143v-1434h-143zM359 1726q0 41 27.5 69t68.5 28t68.5 -28t27.5 -69t-27.5 -68.5t-68.5 -27.5t-68.5 27.5t-27.5 68.5z" />
<glyph unicode="&#xd0;" horiz-adv-x="1388" d="M72 651v127h143v656h381q182 0 306 -62.5t201 -164t109.5 -229.5t32.5 -261q0 -123 -29.5 -251t-105.5 -231.5t-203 -169t-319 -65.5h-373v651h-143zM358 129h240q143 0 239.5 52t154 137t81 189.5t23.5 209.5q0 111 -27 217t-84 188t-147 132.5t-217 50.5h-263v-527h318 v-127h-318v-522z" />
<glyph unicode="&#xd1;" horiz-adv-x="1443" d="M215 0v1434h145l725 -1182v1182h144v-1434h-146l-725 1165v-1165h-143zM371 1630q0 109 46 167t144 58q55 0 100.5 -16t85.5 -35.5t76.5 -36t75.5 -16.5t65.5 24.5t30.5 71.5h78q0 -109 -45 -167t-143 -58q-55 0 -100.5 16.5t-85 35t-76.5 34.5t-76 16t-65.5 -23.5 t-30.5 -70.5h-80z" />
<glyph unicode="&#xd2;" horiz-adv-x="1474" d="M143 717q0 133 31 265t100.5 238.5t183 172t279.5 65.5t279.5 -65.5t183.5 -172t100.5 -238.5t30.5 -265t-30.5 -265.5t-100.5 -239t-183.5 -172t-279.5 -65.5t-279.5 65.5t-183 172t-100.5 239t-31 265.5zM293 717q0 -117 23.5 -227.5t75.5 -195.5t137 -137.5t208 -52.5 t208 55.5t137.5 143.5t76 197.5t23.5 216.5q0 117 -23.5 227.5t-76 195.5t-137.5 137t-208 52t-208 -55t-137 -143.5t-75.5 -198t-23.5 -215.5zM430 1888h219l291 -319h-145z" />
<glyph unicode="&#xd3;" horiz-adv-x="1474" d="M143 717q0 133 31 265t100.5 238.5t183 172t279.5 65.5t279.5 -65.5t183.5 -172t100.5 -238.5t30.5 -265t-30.5 -265.5t-100.5 -239t-183.5 -172t-279.5 -65.5t-279.5 65.5t-183 172t-100.5 239t-31 265.5zM293 717q0 -117 23.5 -227.5t75.5 -195.5t137 -137.5t208 -52.5 t208 55.5t137.5 143.5t76 197.5t23.5 216.5q0 117 -23.5 227.5t-76 195.5t-137.5 137t-208 52t-208 -55t-137 -143.5t-75.5 -198t-23.5 -215.5zM557 1569l291 319h219l-365 -319h-145z" />
<glyph unicode="&#xd4;" horiz-adv-x="1474" d="M143 717q0 133 31 265t100.5 238.5t183 172t279.5 65.5t279.5 -65.5t183.5 -172t100.5 -238.5t30.5 -265t-30.5 -265.5t-100.5 -239t-183.5 -172t-279.5 -65.5t-279.5 65.5t-183 172t-100.5 239t-31 265.5zM293 717q0 -117 23.5 -227.5t75.5 -195.5t137 -137.5t208 -52.5 t208 55.5t137.5 143.5t76 197.5t23.5 216.5q0 117 -23.5 227.5t-76 195.5t-137.5 137t-208 52t-208 -55t-137 -143.5t-75.5 -198t-23.5 -215.5zM391 1569l289 319h164l289 -319h-133l-238 206l-237 -206h-134z" />
<glyph unicode="&#xd5;" horiz-adv-x="1474" d="M143 717q0 133 31 265t100.5 238.5t183 172t279.5 65.5t279.5 -65.5t183.5 -172t100.5 -238.5t30.5 -265t-30.5 -265.5t-100.5 -239t-183.5 -172t-279.5 -65.5t-279.5 65.5t-183 172t-100.5 239t-31 265.5zM293 717q0 -117 23.5 -227.5t75.5 -195.5t137 -137.5t208 -52.5 t208 55.5t137.5 143.5t76 197.5t23.5 216.5q0 117 -23.5 227.5t-76 195.5t-137.5 137t-208 52t-208 -55t-137 -143.5t-75.5 -198t-23.5 -215.5zM387 1630q0 109 46 167t144 58q55 0 100.5 -16t85.5 -35.5t76.5 -36t75.5 -16.5t65.5 24.5t30.5 71.5h78q0 -109 -45 -167 t-143 -58q-55 0 -100.5 16.5t-85 35t-76.5 34.5t-76 16t-65.5 -23.5t-30.5 -70.5h-80z" />
<glyph unicode="&#xd6;" horiz-adv-x="1474" d="M143 717q0 133 31 265t100.5 238.5t183 172t279.5 65.5t279.5 -65.5t183.5 -172t100.5 -238.5t30.5 -265t-30.5 -265.5t-100.5 -239t-183.5 -172t-279.5 -65.5t-279.5 65.5t-183 172t-100.5 239t-31 265.5zM293 717q0 -117 23.5 -227.5t75.5 -195.5t137 -137.5t208 -52.5 t208 55.5t137.5 143.5t76 197.5t23.5 216.5q0 117 -23.5 227.5t-76 195.5t-137.5 137t-208 52t-208 -55t-137 -143.5t-75.5 -198t-23.5 -215.5zM471 1726q0 41 27.5 69t68.5 28t68.5 -28t27.5 -69t-27.5 -68.5t-68.5 -27.5t-68.5 27.5t-27.5 68.5zM811 1726q0 41 27.5 69 t68.5 28t68.5 -28t27.5 -69t-27.5 -68.5t-68.5 -27.5t-68.5 27.5t-27.5 68.5z" />
<glyph unicode="&#xd7;" d="M221 350l357 355l-355 348l101 98l350 -350l350 352l102 -104l-352 -349l350 -354l-96 -96l-350 350l-350 -352z" />
<glyph unicode="&#xd8;" horiz-adv-x="1474" d="M143 717q0 133 31 265t100.5 238.5t183 172t279.5 65.5q109 0 194 -29.5t150 -80.5l74 110h152l-133 -201q86 -109 121.5 -252t35.5 -288q0 -133 -30.5 -265.5t-100.5 -239t-183.5 -172t-279.5 -65.5q-111 0 -196.5 30t-151.5 81l-74 -111h-147l133 201q-86 109 -122 251 t-36 290zM293 717q0 -115 21.5 -221.5t70.5 -192.5l621 930q-51 45 -117 70.5t-152 25.5q-123 0 -208 -55t-137 -143.5t-75.5 -198t-23.5 -215.5zM467 201q49 -45 116.5 -71t153.5 -26q123 0 208 55.5t137.5 143.5t76 197.5t23.5 216.5q0 115 -21.5 221t-73.5 192z" />
<glyph unicode="&#xd9;" horiz-adv-x="1392" d="M205 532v902h143v-902q0 -129 29 -211.5t77 -131t110.5 -67t131.5 -18.5q70 0 132.5 18.5t110.5 67t76.5 131t28.5 211.5v902h144v-902q0 -150 -34 -255t-97.5 -172.5t-154.5 -98.5t-206 -31t-206 31t-154.5 98.5t-97 173t-33.5 254.5zM405 1888h219l291 -319h-145z" />
<glyph unicode="&#xda;" horiz-adv-x="1392" d="M205 532v902h143v-902q0 -129 29 -211.5t77 -131t110.5 -67t131.5 -18.5q70 0 132.5 18.5t110.5 67t76.5 131t28.5 211.5v902h144v-902q0 -150 -34 -255t-97.5 -172.5t-154.5 -98.5t-206 -31t-206 31t-154.5 98.5t-97 173t-33.5 254.5zM512 1569l291 319h219l-365 -319 h-145z" />
<glyph unicode="&#xdb;" horiz-adv-x="1392" d="M205 532v902h143v-902q0 -129 29 -211.5t77 -131t110.5 -67t131.5 -18.5q70 0 132.5 18.5t110.5 67t76.5 131t28.5 211.5v902h144v-902q0 -150 -34 -255t-97.5 -172.5t-154.5 -98.5t-206 -31t-206 31t-154.5 98.5t-97 173t-33.5 254.5zM325 1569l289 319h164l289 -319 h-133l-238 206l-237 -206h-134z" />
<glyph unicode="&#xdc;" horiz-adv-x="1392" d="M205 532v902h143v-902q0 -129 29 -211.5t77 -131t110.5 -67t131.5 -18.5q70 0 132.5 18.5t110.5 67t76.5 131t28.5 211.5v902h144v-902q0 -150 -34 -255t-97.5 -172.5t-154.5 -98.5t-206 -31t-206 31t-154.5 98.5t-97 173t-33.5 254.5zM430 1726q0 41 27.5 69t68.5 28 t68.5 -28t27.5 -69t-27.5 -68.5t-68.5 -27.5t-68.5 27.5t-27.5 68.5zM770 1726q0 41 27.5 69t68.5 28t68.5 -28t27.5 -69t-27.5 -68.5t-68.5 -27.5t-68.5 27.5t-27.5 68.5z" />
<glyph unicode="&#xdd;" horiz-adv-x="1261" d="M92 1434h158l381 -738l391 738h147l-464 -865v-569h-144v563zM445 1569l291 319h219l-365 -319h-145z" />
<glyph unicode="&#xde;" horiz-adv-x="1273" d="M215 0v1434h143v-285h381q129 0 215 -36t139.5 -95.5t76 -135t22.5 -155.5q0 -72 -24.5 -146.5t-78 -135t-139.5 -99.5t-211 -39h-381v-307h-143zM358 436h394q84 0 142 26.5t94 67.5t51.5 93.5t15.5 103.5q0 45 -13.5 96t-48.5 95.5t-93 73t-148 28.5h-394v-584z" />
<glyph unicode="&#xdf;" horiz-adv-x="1159" d="M164 -416v1395q0 131 36 222t93 148.5t130 83t144 25.5q90 0 165 -26.5t128 -75.5t83 -119t30 -154q0 -98 -46 -180t-149 -115q133 -47 201 -142t68 -218q0 -102 -33 -186t-90.5 -143.5t-136 -91.5t-171.5 -32q-47 0 -90 9.5t-71 23.5l67 111q40 -15 99 -15q47 0 96 18.5 t89 56.5t65.5 97.5t25.5 143.5q0 55 -17.5 107.5t-56.5 94.5t-103.5 66.5t-156.5 24.5h-8v129h8q117 0 188.5 54t71.5 181q0 117 -63.5 184.5t-190.5 67.5q-53 0 -101 -19.5t-84 -61.5t-56.5 -106.5t-20.5 -156.5v-1327z" />
<glyph unicode="&#xe0;" horiz-adv-x="1062" d="M123 330q0 90 31.5 155.5t84 107.5t122 62.5t143.5 20.5q66 0 135.5 -16.5t146.5 -57.5v88q0 80 -19 129t-51 78t-74 39t-85 10q-39 0 -82 -10t-84 -26.5t-79 -36t-66 -39.5l-41 122q63 41 160.5 78t205.5 37q55 0 117 -15.5t113 -55t85 -110.5t34 -181v-709h-134v102 q-63 -57 -142 -92t-165 -35q-158 0 -257 89.5t-99 265.5zM256 330q0 -104 61.5 -167t176.5 -63q47 0 90 14.5t79.5 37t67.5 52t55 58.5v203q-51 35 -125.5 60.5t-142.5 25.5q-53 0 -100 -13.5t-83 -41t-57.5 -68.5t-21.5 -98zM264 1499h219l291 -319h-145z" />
<glyph unicode="&#xe1;" horiz-adv-x="1062" d="M123 330q0 90 31.5 155.5t84 107.5t122 62.5t143.5 20.5q66 0 135.5 -16.5t146.5 -57.5v88q0 80 -19 129t-51 78t-74 39t-85 10q-39 0 -82 -10t-84 -26.5t-79 -36t-66 -39.5l-41 122q63 41 160.5 78t205.5 37q55 0 117 -15.5t113 -55t85 -110.5t34 -181v-709h-134v102 q-63 -57 -142 -92t-165 -35q-158 0 -257 89.5t-99 265.5zM256 330q0 -104 61.5 -167t176.5 -63q47 0 90 14.5t79.5 37t67.5 52t55 58.5v203q-51 35 -125.5 60.5t-142.5 25.5q-53 0 -100 -13.5t-83 -41t-57.5 -68.5t-21.5 -98zM371 1180l291 319h219l-365 -319h-145z" />
<glyph unicode="&#xe2;" horiz-adv-x="1062" d="M123 330q0 90 31.5 155.5t84 107.5t122 62.5t143.5 20.5q66 0 135.5 -16.5t146.5 -57.5v88q0 80 -19 129t-51 78t-74 39t-85 10q-39 0 -82 -10t-84 -26.5t-79 -36t-66 -39.5l-41 122q63 41 160.5 78t205.5 37q55 0 117 -15.5t113 -55t85 -110.5t34 -181v-709h-134v102 q-63 -57 -142 -92t-165 -35q-158 0 -257 89.5t-99 265.5zM202 1180l289 319h164l289 -319h-133l-238 206l-237 -206h-134zM256 330q0 -104 61.5 -167t176.5 -63q47 0 90 14.5t79.5 37t67.5 52t55 58.5v203q-51 35 -125.5 60.5t-142.5 25.5q-53 0 -100 -13.5t-83 -41 t-57.5 -68.5t-21.5 -98z" />
<glyph unicode="&#xe3;" horiz-adv-x="1062" d="M123 330q0 90 31.5 155.5t84 107.5t122 62.5t143.5 20.5q66 0 135.5 -16.5t146.5 -57.5v88q0 80 -19 129t-51 78t-74 39t-85 10q-39 0 -82 -10t-84 -26.5t-79 -36t-66 -39.5l-41 122q63 41 160.5 78t205.5 37q55 0 117 -15.5t113 -55t85 -110.5t34 -181v-709h-134v102 q-63 -57 -142 -92t-165 -35q-158 0 -257 89.5t-99 265.5zM223 1241q0 109 46 167t144 58q55 0 100.5 -16t85.5 -35.5t76.5 -36t75.5 -16.5t65.5 24.5t30.5 71.5h78q0 -109 -45 -167t-143 -58q-55 0 -100.5 16.5t-85 35t-76.5 34.5t-76 16t-65.5 -23.5t-30.5 -70.5h-80z M256 330q0 -104 61.5 -167t176.5 -63q47 0 90 14.5t79.5 37t67.5 52t55 58.5v203q-51 35 -125.5 60.5t-142.5 25.5q-53 0 -100 -13.5t-83 -41t-57.5 -68.5t-21.5 -98z" />
<glyph unicode="&#xe4;" horiz-adv-x="1062" d="M123 330q0 90 31.5 155.5t84 107.5t122 62.5t143.5 20.5q66 0 135.5 -16.5t146.5 -57.5v88q0 80 -19 129t-51 78t-74 39t-85 10q-39 0 -82 -10t-84 -26.5t-79 -36t-66 -39.5l-41 122q63 41 160.5 78t205.5 37q55 0 117 -15.5t113 -55t85 -110.5t34 -181v-709h-134v102 q-63 -57 -142 -92t-165 -35q-158 0 -257 89.5t-99 265.5zM256 330q0 -104 61.5 -167t176.5 -63q47 0 90 14.5t79.5 37t67.5 52t55 58.5v203q-51 35 -125.5 60.5t-142.5 25.5q-53 0 -100 -13.5t-83 -41t-57.5 -68.5t-21.5 -98zM307 1337q0 41 27.5 69t68.5 28t68.5 -28 t27.5 -69t-27.5 -68.5t-68.5 -27.5t-68.5 27.5t-27.5 68.5zM647 1337q0 41 27.5 69t68.5 28t68.5 -28t27.5 -69t-27.5 -68.5t-68.5 -27.5t-68.5 27.5t-27.5 68.5z" />
<glyph unicode="&#xe5;" horiz-adv-x="1062" d="M123 330q0 90 31.5 155.5t84 107.5t122 62.5t143.5 20.5q66 0 135.5 -16.5t146.5 -57.5v88q0 80 -19 129t-51 78t-74 39t-85 10q-39 0 -82 -10t-84 -26.5t-79 -36t-66 -39.5l-41 122q63 41 160.5 78t205.5 37q55 0 117 -15.5t113 -55t85 -110.5t34 -181v-709h-134v102 q-63 -57 -142 -92t-165 -35q-158 0 -257 89.5t-99 265.5zM256 330q0 -104 61.5 -167t176.5 -63q47 0 90 14.5t79.5 37t67.5 52t55 58.5v203q-51 35 -125.5 60.5t-142.5 25.5q-53 0 -100 -13.5t-83 -41t-57.5 -68.5t-21.5 -98zM338 1411q0 47 18 89t51 73t76 48.5t90 17.5 t90 -17.5t75 -48.5t51.5 -73t19.5 -89t-19.5 -90t-51.5 -74.5t-75 -50t-90 -18.5t-90 18.5t-76 50t-51 74.5t-18 90zM458 1411q0 -55 34 -91t81 -36q49 0 82 36t33 91t-33 88t-82 33q-47 0 -81 -32.5t-34 -88.5z" />
<glyph unicode="&#xe6;" horiz-adv-x="1738" d="M123 330q0 88 30.5 153.5t83 108.5t121 63.5t146.5 20.5q66 0 135.5 -16.5t146.5 -57.5v88q0 139 -60 197.5t-169 58.5q-39 0 -82 -10t-84 -26.5t-79 -36t-66 -39.5l-41 122q63 41 161.5 78t204.5 37q113 0 190 -43t116 -119q72 90 162.5 126t181.5 36q92 0 168.5 -32.5 t131 -96t85 -159t30.5 -218.5v-40.5t-4 -59.5h-712q20 -174 102 -265t205 -91q57 0 117.5 18t119.5 63l78 -96q-55 -45 -137 -82t-184 -37q-119 0 -213.5 57.5t-151.5 153.5q-37 -55 -83 -95t-96 -65.5t-101.5 -38t-96.5 -12.5q-158 0 -257 89.5t-99 265.5zM256 330 q0 -104 61.5 -167t176.5 -63q47 0 90 14.5t79.5 37t67.5 52t55 58.5v203q-51 35 -125.5 60.5t-142.5 25.5q-53 0 -100 -13.5t-83 -41t-57.5 -68.5t-21.5 -98zM915 594h576q0 106 -26.5 174t-67.5 106.5t-88 53t-86 14.5q-127 0 -212 -84t-96 -264z" />
<glyph unicode="&#xe7;" horiz-adv-x="985" d="M113 522q0 260 113.5 404.5t316.5 144.5q117 0 205 -56.5t131 -162.5l-131 -51q-25 59 -75 100t-136 41q-74 0 -125.5 -29.5t-85 -84t-49 -132.5t-15.5 -174q0 -199 65.5 -308.5t204.5 -109.5q86 0 145.5 43t86.5 117l129 -49q-33 -98 -112 -158.5t-189 -76.5l-55 -93 q59 0 100 -14t65.5 -37.5t35 -53.5t10.5 -61q0 -90 -65 -145t-163 -55q-59 0 -104 15t-76 42l94 62q12 -16 28.5 -18.5t45.5 -2.5q43 0 76.5 29.5t33.5 75.5q0 39 -39.5 68.5t-86.5 29.5q-51 0 -74 -10l-25 30l105 135q-178 10 -281.5 150.5t-103.5 394.5z" />
<glyph unicode="&#xe8;" horiz-adv-x="1083" d="M113 524q0 131 33.5 232.5t93 171t143.5 106.5t184 37q84 0 159 -29.5t132 -91t90 -158t33 -227.5v-40.5t-4 -59.5h-713q18 -160 96 -258t213 -98q57 0 117 18t119 63l78 -96q-61 -51 -144.5 -85t-175.5 -34q-106 0 -190 44t-142.5 120t-90 175.5t-31.5 209.5zM260 594 h576q0 106 -27 174t-67 106.5t-87 53t-88 14.5q-127 0 -212 -84t-95 -264zM262 1499h219l291 -319h-145z" />
<glyph unicode="&#xe9;" horiz-adv-x="1083" d="M113 524q0 131 33.5 232.5t93 171t143.5 106.5t184 37q84 0 159 -29.5t132 -91t90 -158t33 -227.5v-40.5t-4 -59.5h-713q18 -160 96 -258t213 -98q57 0 117 18t119 63l78 -96q-61 -51 -144.5 -85t-175.5 -34q-106 0 -190 44t-142.5 120t-90 175.5t-31.5 209.5zM260 594 h576q0 106 -27 174t-67 106.5t-87 53t-88 14.5q-127 0 -212 -84t-95 -264zM346 1180l291 319h219l-365 -319h-145z" />
<glyph unicode="&#xea;" horiz-adv-x="1083" d="M113 524q0 131 33.5 232.5t93 171t143.5 106.5t184 37q84 0 159 -29.5t132 -91t90 -158t33 -227.5v-40.5t-4 -59.5h-713q18 -160 96 -258t213 -98q57 0 117 18t119 63l78 -96q-61 -51 -144.5 -85t-175.5 -34q-106 0 -190 44t-142.5 120t-90 175.5t-31.5 209.5zM196 1180 l289 319h164l289 -319h-133l-238 206l-237 -206h-134zM260 594h576q0 106 -27 174t-67 106.5t-87 53t-88 14.5q-127 0 -212 -84t-95 -264z" />
<glyph unicode="&#xeb;" horiz-adv-x="1083" d="M113 524q0 131 33.5 232.5t93 171t143.5 106.5t184 37q84 0 159 -29.5t132 -91t90 -158t33 -227.5v-40.5t-4 -59.5h-713q18 -160 96 -258t213 -98q57 0 117 18t119 63l78 -96q-61 -51 -144.5 -85t-175.5 -34q-106 0 -190 44t-142.5 120t-90 175.5t-31.5 209.5zM260 594 h576q0 106 -27 174t-67 106.5t-87 53t-88 14.5q-127 0 -212 -84t-95 -264zM301 1337q0 41 27.5 69t68.5 28t68.5 -28t27.5 -69t-27.5 -68.5t-68.5 -27.5t-68.5 27.5t-27.5 68.5zM641 1337q0 41 27.5 69t68.5 28t68.5 -28t27.5 -69t-27.5 -68.5t-68.5 -27.5t-68.5 27.5 t-27.5 68.5z" />
<glyph unicode="&#xec;" horiz-adv-x="516" d="M-45 1499h219l291 -319h-145zM186 0v1047h144v-1047h-144z" />
<glyph unicode="&#xed;" horiz-adv-x="516" d="M53 1180l291 319h219l-365 -319h-145zM186 0v1047h144v-1047h-144z" />
<glyph unicode="&#xee;" horiz-adv-x="516" d="M-113 1180l289 319h164l289 -319h-133l-238 206l-237 -206h-134zM186 0v1047h144v-1047h-144z" />
<glyph unicode="&#xef;" horiz-adv-x="516" d="M-8 1337q0 41 27.5 69t68.5 28t68.5 -28t27.5 -69t-27.5 -68.5t-68.5 -27.5t-68.5 27.5t-27.5 68.5zM186 0v1047h144v-1047h-144zM332 1337q0 41 27.5 69t68.5 28t68.5 -28t27.5 -69t-27.5 -68.5t-68.5 -27.5t-68.5 27.5t-27.5 68.5z" />
<glyph unicode="&#xf0;" horiz-adv-x="1122" d="M113 453q0 109 33.5 197.5t94 151t142.5 97.5t178 35q63 0 112.5 -15.5t86.5 -41t62.5 -57.5t41.5 -64q-16 135 -77.5 257t-172.5 208l-135 -144l-67 70l118 129q-53 29 -117.5 48t-138.5 26v108q88 -8 176.5 -31.5t159.5 -64.5l117 127l72 -72l-105 -110 q141 -111 228.5 -298.5t87.5 -457.5q0 -272 -116 -424t-333 -152q-102 0 -185 36t-141.5 99.5t-90 151.5t-31.5 191zM262 453q0 -74 23.5 -138.5t64.5 -110.5t95.5 -73t115.5 -27t116.5 27t95.5 73t63.5 109.5t23.5 137.5t-22.5 139t-62.5 112.5t-95.5 75t-118.5 27.5 q-61 0 -116.5 -26.5t-95.5 -73t-63.5 -112t-23.5 -140.5z" />
<glyph unicode="&#xf1;" horiz-adv-x="1146" d="M184 0v1047h144v-115q49 72 117.5 105.5t152.5 33.5q193 0 284 -115.5t91 -375.5v-580h-144v639q0 166 -69.5 234.5t-173.5 68.5q-55 0 -102.5 -14.5t-82 -49t-54 -92t-19.5 -143.5v-643h-144zM240 1241q0 109 46 167t144 58q55 0 100.5 -16t85.5 -35.5t76.5 -36 t75.5 -16.5t65.5 24.5t30.5 71.5h78q0 -109 -45 -167t-143 -58q-55 0 -100.5 16.5t-85 35t-76.5 34.5t-76 16t-65.5 -23.5t-30.5 -70.5h-80z" />
<glyph unicode="&#xf2;" horiz-adv-x="1122" d="M113 522q0 129 32.5 230.5t91 172t141.5 108.5t183 38t183 -37t141.5 -106.5t91.5 -171t33 -232.5q0 -129 -33 -231.5t-91.5 -173t-141 -107.5t-183.5 -37q-100 0 -183 37t-141.5 106.5t-91 171t-32.5 232.5zM258 1499h219l291 -319h-145zM262 522q0 -197 76 -307.5 t223 -110.5q143 0 221 111t78 309q0 197 -75.5 307.5t-223.5 110.5q-147 0 -223 -107.5t-76 -312.5z" />
<glyph unicode="&#xf3;" horiz-adv-x="1122" d="M113 522q0 129 32.5 230.5t91 172t141.5 108.5t183 38t183 -37t141.5 -106.5t91.5 -171t33 -232.5q0 -129 -33 -231.5t-91.5 -173t-141 -107.5t-183.5 -37q-100 0 -183 37t-141.5 106.5t-91 171t-32.5 232.5zM262 522q0 -197 76 -307.5t223 -110.5q143 0 221 111t78 309 q0 197 -75.5 307.5t-223.5 110.5q-147 0 -223 -107.5t-76 -312.5zM361 1180l291 319h219l-365 -319h-145z" />
<glyph unicode="&#xf4;" horiz-adv-x="1122" d="M113 522q0 129 32.5 230.5t91 172t141.5 108.5t183 38t183 -37t141.5 -106.5t91.5 -171t33 -232.5q0 -129 -33 -231.5t-91.5 -173t-141 -107.5t-183.5 -37q-100 0 -183 37t-141.5 106.5t-91 171t-32.5 232.5zM190 1180l289 319h164l289 -319h-133l-238 206l-237 -206 h-134zM262 522q0 -197 76 -307.5t223 -110.5q143 0 221 111t78 309q0 197 -75.5 307.5t-223.5 110.5q-147 0 -223 -107.5t-76 -312.5z" />
<glyph unicode="&#xf5;" horiz-adv-x="1122" d="M113 522q0 129 32.5 230.5t91 172t141.5 108.5t183 38t183 -37t141.5 -106.5t91.5 -171t33 -232.5q0 -129 -33 -231.5t-91.5 -173t-141 -107.5t-183.5 -37q-100 0 -183 37t-141.5 106.5t-91 171t-32.5 232.5zM211 1241q0 109 46 167t144 58q55 0 100.5 -16t85.5 -35.5 t76.5 -36t75.5 -16.5t65.5 24.5t30.5 71.5h78q0 -109 -45 -167t-143 -58q-55 0 -100.5 16.5t-85 35t-76.5 34.5t-76 16t-65.5 -23.5t-30.5 -70.5h-80zM262 522q0 -197 76 -307.5t223 -110.5q143 0 221 111t78 309q0 197 -75.5 307.5t-223.5 110.5q-147 0 -223 -107.5 t-76 -312.5z" />
<glyph unicode="&#xf6;" horiz-adv-x="1122" d="M113 522q0 129 32.5 230.5t91 172t141.5 108.5t183 38t183 -37t141.5 -106.5t91.5 -171t33 -232.5q0 -129 -33 -231.5t-91.5 -173t-141 -107.5t-183.5 -37q-100 0 -183 37t-141.5 106.5t-91 171t-32.5 232.5zM262 522q0 -197 76 -307.5t223 -110.5q143 0 221 111t78 309 q0 197 -75.5 307.5t-223.5 110.5q-147 0 -223 -107.5t-76 -312.5zM295 1337q0 41 27.5 69t68.5 28t68.5 -28t27.5 -69t-27.5 -68.5t-68.5 -27.5t-68.5 27.5t-27.5 68.5zM635 1337q0 41 27.5 69t68.5 28t68.5 -28t27.5 -69t-27.5 -68.5t-68.5 -27.5t-68.5 27.5t-27.5 68.5z " />
<glyph unicode="&#xf7;" d="M195 631v139h962v-139h-962zM571 274q0 41 28 71t71 30q45 0 74.5 -30t29.5 -71t-29.5 -67.5t-74.5 -26.5q-43 0 -71 26.5t-28 67.5zM571 1124q0 39 28 70t71 31q45 0 74.5 -31t29.5 -70q0 -41 -29.5 -69.5t-74.5 -28.5q-43 0 -71 28.5t-28 69.5z" />
<glyph unicode="&#xf8;" horiz-adv-x="1122" d="M113 -25l110 160q-111 141 -110 387q0 129 32.5 230.5t92 172t142.5 108.5t183 38q145 0 254 -78l55 78h136l-109 -158q53 -70 82 -168t29 -221q0 -129 -32 -231.5t-90.5 -173t-141 -107.5t-183.5 -37q-154 0 -260 80l-57 -80h-133zM262 522q0 -160 49 -260l428 619 q-74 61 -176 61q-147 0 -224 -107.5t-77 -312.5zM381 168q73 -64 182 -64q143 0 220 111t77 309q0 156 -51 262z" />
<glyph unicode="&#xf9;" horiz-adv-x="1146" d="M174 463v584h143v-639q0 -164 69 -234t173 -70q55 0 102.5 14.5t83 49.5t55 92t19.5 143v644h144v-1047h-144v100q-55 -72 -116.5 -98.5t-143.5 -26.5q-203 0 -294 115t-91 373zM274 1499h219l291 -319h-145z" />
<glyph unicode="&#xfa;" horiz-adv-x="1146" d="M174 463v584h143v-639q0 -164 69 -234t173 -70q55 0 102.5 14.5t83 49.5t55 92t19.5 143v644h144v-1047h-144v100q-55 -72 -116.5 -98.5t-143.5 -26.5q-203 0 -294 115t-91 373zM340 1180l291 319h219l-365 -319h-145z" />
<glyph unicode="&#xfb;" horiz-adv-x="1146" d="M174 463v584h143v-639q0 -164 69 -234t173 -70q55 0 102.5 14.5t83 49.5t55 92t19.5 143v644h144v-1047h-144v100q-55 -72 -116.5 -98.5t-143.5 -26.5q-203 0 -294 115t-91 373zM190 1180l289 319h164l289 -319h-133l-238 206l-237 -206h-134z" />
<glyph unicode="&#xfc;" horiz-adv-x="1146" d="M174 463v584h143v-639q0 -164 69 -234t173 -70q55 0 102.5 14.5t83 49.5t55 92t19.5 143v644h144v-1047h-144v100q-55 -72 -116.5 -98.5t-143.5 -26.5q-203 0 -294 115t-91 373zM295 1337q0 41 27.5 69t68.5 28t68.5 -28t27.5 -69t-27.5 -68.5t-68.5 -27.5t-68.5 27.5 t-27.5 68.5zM635 1337q0 41 27.5 69t68.5 28t68.5 -28t27.5 -69t-27.5 -68.5t-68.5 -27.5t-68.5 27.5t-27.5 68.5z" />
<glyph unicode="&#xfd;" horiz-adv-x="1046" d="M61 1047h146l299 -844l305 844h154l-535 -1444h-141l155 430zM258 1180l291 319h219l-365 -319h-145z" />
<glyph unicode="&#xfe;" horiz-adv-x="1159" d="M184 -416v1805l144 69v-506q53 47 116.5 83t169.5 36q100 0 180 -39t136.5 -110.5t86.5 -173t30 -224.5q0 -131 -32 -232.5t-89.5 -172t-137.5 -107.5t-174 -37q-111 0 -176 39t-110 92v-450zM328 266q53 -70 118.5 -116t151.5 -46q145 0 222 110t77 310q0 193 -80 305.5 t-219 112.5q-86 0 -156.5 -42t-113.5 -120v-514z" />
<glyph unicode="&#xff;" horiz-adv-x="1046" d="M61 1047h146l299 -844l305 844h154l-535 -1444h-141l155 430zM240 1337q0 41 27.5 69t68.5 28t68.5 -28t27.5 -69t-27.5 -68.5t-68.5 -27.5t-68.5 27.5t-27.5 68.5zM580 1337q0 41 27.5 69t68.5 28t68.5 -28t27.5 -69t-27.5 -68.5t-68.5 -27.5t-68.5 27.5t-27.5 68.5z " />
<glyph unicode="&#x152;" horiz-adv-x="1861" d="M143 717q0 135 31 268t101.5 237.5t183 170t278.5 65.5q55 0 98.5 -6t84.5 -18h753v-138h-557v-487h379v-135h-379v-537h602v-137h-796q-84 -25 -185 -25q-166 0 -279.5 65.5t-183 171t-100.5 238t-31 267.5zM293 717q0 -119 23.5 -229.5t75.5 -195.5t137 -136.5 t208 -51.5q70 0 127.5 18.5t108.5 51.5v1086q-100 70 -236 69q-123 0 -208 -55t-137 -143.5t-75.5 -198t-23.5 -215.5z" />
<glyph unicode="&#x153;" horiz-adv-x="1830" d="M113 522q0 129 31.5 230.5t91 172t142.5 108.5t185 38q133 0 224.5 -57.5t150.5 -159.5q59 109 156.5 163t218.5 54q84 0 159.5 -29.5t132 -91t90.5 -158t34 -227.5v-40.5t-5 -59.5h-712q18 -160 96 -258t211 -98q59 0 118.5 18t118.5 63l78 -96q-59 -49 -143 -84 t-178 -35q-129 0 -222.5 63.5t-148.5 166.5q-55 -104 -149.5 -167t-229.5 -63q-205 0 -327.5 142.5t-122.5 404.5zM262 522q0 -197 77 -307.5t224 -110.5q141 0 219 111t78 309q0 197 -75.5 307.5t-221.5 110.5q-147 0 -224 -107.5t-77 -312.5zM1008 594h575 q0 106 -26.5 174t-66.5 106.5t-87 53t-90 14.5q-125 0 -210 -84t-95 -264z" />
<glyph unicode="&#x178;" horiz-adv-x="1261" d="M92 1434h158l381 -738l391 738h147l-464 -865v-569h-144v563zM365 1726q0 41 27.5 69t68.5 28t68.5 -28t27.5 -69t-27.5 -68.5t-68.5 -27.5t-68.5 27.5t-27.5 68.5zM705 1726q0 41 27.5 69t68.5 28t68.5 -28t27.5 -69t-27.5 -68.5t-68.5 -27.5t-68.5 27.5t-27.5 68.5z " />
<glyph unicode="&#x2c6;" horiz-adv-x="686" d="M-25 1180l289 319h164l289 -319h-133l-238 206l-237 -206h-134z" />
<glyph unicode="&#x2dc;" horiz-adv-x="686" d="M-8 1241q0 109 46 167t144 58q55 0 100.5 -16t85.5 -35.5t76.5 -36t75.5 -16.5t65.5 24.5t30.5 71.5h78q0 -109 -45 -167t-143 -58q-55 0 -100.5 16.5t-85 35t-76.5 34.5t-76 16t-65.5 -23.5t-30.5 -70.5h-80z" />
<glyph unicode="&#x2000;" horiz-adv-x="944" />
<glyph unicode="&#x2001;" horiz-adv-x="1888" />
<glyph unicode="&#x2002;" horiz-adv-x="944" />
<glyph unicode="&#x2003;" horiz-adv-x="1888" />
<glyph unicode="&#x2004;" horiz-adv-x="629" />
<glyph unicode="&#x2005;" horiz-adv-x="472" />
<glyph unicode="&#x2006;" horiz-adv-x="314" />
<glyph unicode="&#x2007;" horiz-adv-x="314" />
<glyph unicode="&#x2008;" horiz-adv-x="236" />
<glyph unicode="&#x2009;" horiz-adv-x="377" />
<glyph unicode="&#x200a;" horiz-adv-x="104" />
<glyph unicode="&#x2010;" horiz-adv-x="825" d="M184 541v139h457v-139h-457z" />
<glyph unicode="&#x2011;" horiz-adv-x="825" d="M184 541v139h457v-139h-457z" />
<glyph unicode="&#x2012;" horiz-adv-x="825" d="M184 541v139h457v-139h-457z" />
<glyph unicode="&#x2013;" horiz-adv-x="1075" d="M133 526v123h809v-123h-809z" />
<glyph unicode="&#x2014;" horiz-adv-x="1239" d="M20 526v123h1199v-123h-1199z" />
<glyph unicode="&#x2018;" horiz-adv-x="462" d="M88 1118q0 117 53.5 204t132.5 136l39 -10q-14 -12 -31.5 -33.5t-33 -52.5t-26.5 -70t-11 -84q66 0 107.5 -35.5t41.5 -91.5q0 -63 -36.5 -99t-87.5 -36q-27 0 -53.5 10.5t-47 31t-34 53t-13.5 77.5z" />
<glyph unicode="&#x2019;" horiz-adv-x="462" d="M102 1323q0 63 37 99t88 36q27 0 53.5 -10t47 -30.5t34 -53.5t13.5 -78q0 -117 -53.5 -204t-133.5 -136l-38 10q14 12 31.5 34t32.5 52.5t26.5 69.5t11.5 84q-66 0 -108 36t-42 91z" />
<glyph unicode="&#x201a;" horiz-adv-x="462" d="M102 88q0 63 37 99t88 36q27 0 53.5 -10t47 -30.5t34 -53.5t13.5 -78q0 -117 -53.5 -204t-133.5 -136l-38 10q14 12 31.5 34t32.5 52.5t26.5 69.5t11.5 84q-66 0 -108 36t-42 91z" />
<glyph unicode="&#x201c;" horiz-adv-x="864" d="M88 1118q0 117 53.5 204t132.5 136l39 -10q-14 -12 -31.5 -33.5t-33 -52.5t-26.5 -70t-11 -84q66 0 107.5 -35.5t41.5 -91.5q0 -63 -36.5 -99t-87.5 -36q-27 0 -53.5 10.5t-47 31t-34 53t-13.5 77.5zM489 1118q0 117 53.5 204t133.5 136l39 -10q-14 -12 -31.5 -33.5 t-33 -52.5t-27 -70t-11.5 -84q66 0 108 -35.5t42 -91.5q0 -63 -37 -99t-88 -36q-27 0 -53.5 10.5t-47 31t-34 53t-13.5 77.5z" />
<glyph unicode="&#x201d;" horiz-adv-x="864" d="M102 1323q0 63 37 99t88 36q27 0 53.5 -10t47 -30.5t34 -53.5t13.5 -78q0 -117 -53.5 -204t-133.5 -136l-38 10q14 12 31.5 34t32.5 52.5t26.5 69.5t11.5 84q-66 0 -108 36t-42 91zM504 1323q0 63 37 99t88 36q27 0 53.5 -10t47 -30.5t33.5 -53.5t13 -78q0 -117 -53 -204 t-133 -136l-39 10q14 12 31.5 34t33 52.5t26.5 69.5t11 84q-66 0 -107.5 36t-41.5 91z" />
<glyph unicode="&#x201e;" horiz-adv-x="864" d="M102 88q0 63 37 99t88 36q27 0 53.5 -10t47 -30.5t34 -53.5t13.5 -78q0 -117 -53.5 -204t-133.5 -136l-38 10q14 12 31.5 34t32.5 52.5t26.5 69.5t11.5 84q-66 0 -108 36t-42 91zM504 88q0 63 37 99t88 36q27 0 53.5 -10t47 -30.5t33.5 -53.5t13 -78q0 -117 -53 -204 t-133 -136l-39 10q14 12 31.5 34t33 52.5t26.5 69.5t11 84q-66 0 -107.5 36t-41.5 91z" />
<glyph unicode="&#x2022;" horiz-adv-x="851" d="M154 717q0 55 20.5 103t56 84t85 56.5t108.5 20.5q57 0 107.5 -20.5t87 -56.5t58 -84t21.5 -103t-21.5 -102.5t-58 -82t-87 -55t-107.5 -20.5q-59 0 -108.5 20.5t-85 55t-56 82t-20.5 102.5z" />
<glyph unicode="&#x2026;" horiz-adv-x="1943" d="M215 100q0 49 37 89t92 40t92 -39.5t37 -89.5q0 -49 -37 -89t-92 -40t-92 40t-37 89zM842 100q0 49 36.5 89t92.5 40q55 0 92 -39.5t37 -89.5q0 -49 -37 -89t-92 -40t-92 40t-37 89zM1470 100q0 49 37 89t92 40t92.5 -39.5t37.5 -89.5q0 -49 -37.5 -89t-92.5 -40t-92 40 t-37 89z" />
<glyph unicode="&#x202f;" horiz-adv-x="377" />
<glyph unicode="&#x2039;" horiz-adv-x="624" d="M92 524l311 523h160l-311 -523l311 -524h-160z" />
<glyph unicode="&#x203a;" horiz-adv-x="624" d="M61 0l312 524l-312 523h160l311 -523l-311 -524h-160z" />
<glyph unicode="&#x205f;" horiz-adv-x="472" />
<glyph unicode="&#x20ac;" horiz-adv-x="1245" d="M92 475l55 119h78q-4 29 -4 58.5v60.5v49t2 49h-131l55 119h93q18 104 58 199.5t105.5 168t157.5 116.5t217 44q94 0 179 -24.5t157 -71.5l-55 -131q-51 43 -123 68.5t-162 25.5t-155.5 -32.5t-110.5 -87t-71.5 -126t-41.5 -149.5h539l-49 -119h-506q-4 -35 -4 -68.5 v-64.5v-41t4 -43h416l-50 -119h-348q14 -70 43 -136.5t72 -117.5t102.5 -81.5t137.5 -30.5q100 0 173.5 40.5t123.5 106.5l114 -72q-25 -39 -62.5 -75.5t-88.5 -66.5t-115.5 -48.5t-140.5 -18.5q-121 0 -210 38t-151.5 105.5t-99.5 159t-55 197.5h-148z" />
<glyph unicode="&#x2122;" horiz-adv-x="1609" d="M72 1327v107h583v-107h-233v-758h-115v758h-235zM739 569v865h92l256 -617l256 617h93v-865h-115v510l-231 -542l-236 546v-514h-115z" />
<glyph unicode="&#x25fc;" horiz-adv-x="1044" d="M0 0v1044h1044v-1044h-1044z" />
</font>
</defs>
</svg>
